<?xml version="1.0" standalone="no"?>
<!DOCTYPE svg PUBLIC "-//W3C//DTD SVG 1.1//EN" "http://www.w3.org/Graphics/SVG/1.1/DTD/svg11.dtd" >
<!--
2013-9-30: Created.
-->
<svg>
<metadata>
Created by iconfont
</metadata>
<defs>

<font id="iconfont" horiz-adv-x="1024" >
  <font-face
    font-family="iconfont"
    font-weight="500"
    font-stretch="normal"
    units-per-em="1024"
    ascent="896"
    descent="-128"
  />
    <missing-glyph />
    
    <glyph glyph-name="leftarrow" unicode="&#59249;" d="M783.872 353.877333l-0.042667 64.405334-477.610666 0.298666 225.28 225.322667-45.568 45.568L182.506667 386.048l303.829333-303.829333 45.525333 45.504-226.474666 226.453333 478.506666-0.298667z"  horiz-adv-x="1024" />

    
    <glyph glyph-name="zhongqingdianxinicon10" unicode="&#59248;" d="M65.201489 686.91105l893.595998 0 0-647.830595-893.595998 0L65.201489 686.91105 65.201489 686.91105zM118.817618 631.509253l0-539.708062 786.364765 0 0 542.388101-785.468348 0C118.671285 634.038866 118.7378 632.780199 118.817618 631.509253L118.817618 631.509253zM236.77003-34.191338l565.648874 0 0-52.720735-566.53915 0 0 50.039673C235.803006-35.602478 235.729328-34.337671 236.77003-34.191338L236.77003-34.191338zM236.77003-34.191338"  horiz-adv-x="1024" />

    
    <glyph glyph-name="huabanfuben" unicode="&#60283;" d="M98 642.62h0.57c0.72 0 66.48 1 163.69 1.22a126.54 126.54 0 0 1 243.37-0.6h436.24a35 35 0 0 1 0 70H505.62a126.54 126.54 0 0 1-243 0.61c-98-0.19-164.43-1.23-165.15-1.24a35 35 0 0 1 0.54-70z m286 92.16a56.59 56.59 0 0 0 56.4-52.91 36.49 36.49 0 0 1 0-7.24 56.52 56.52 0 1 0-56.4 60.15zM98 349h486.25a126.55 126.55 0 0 1 243.38 0.6c87.55-0.19 112.49-1.19 112.76-1.2h1.51a35 35 0 0 1 1.48 70c-1.12 0-26 1.07-116.11 1.26a126.54 126.54 0 0 1-243-0.6H98a35 35 0 0 1 0-70z m607.85 91.53A56.53 56.53 0 1 0 649.32 384a56.59 56.59 0 0 0 56.53 56.53zM941.87 124.21H505.62a126.54 126.54 0 0 1-243 0.61c-98-0.19-164.43-1.23-165.15-1.24a35 35 0 0 1 0.54-70h0.57c0.72 0 66.51 1 163.69 1.23a126.54 126.54 0 0 1 243.37-0.6h436.23a35 35 0 0 1 0 70zM384 32.68a56.53 56.53 0 1 0 56.4 60.15 36.49 36.49 0 0 1 0-7.24 56.6 56.6 0 0 0-56.4-52.91z"  horiz-adv-x="1024" />

    
    <glyph glyph-name="check-square-fill3x" unicode="&#59246;" d="M940.202667 725.333333l-491.52-681.301333a74.24 74.24 0 0 0-120.490667 0L37.205333 447.317333a18.773333 18.773333 0 0 0 15.189334 29.525334h109.226666c23.893333 0 46.592-11.434667 60.586667-31.061334l166.058667-230.4 366.933333 508.586667a74.581333 74.581333 0 0 0 60.416 31.061333h109.226667c15.36 0 24.234667-17.237333 15.36-29.696z"  horiz-adv-x="1024" />

    
    <glyph glyph-name="play-square-fill3x" unicode="&#59247;" d="M969.142857-36.571429V804.571429a36.571429 36.571429 0 0 1-36.571428 36.571428H91.428571a36.571429 36.571429 0 0 1-36.571428-36.571428v-841.142858a36.571429 36.571429 0 0 1 36.571428-36.571428h841.142858a36.571429 36.571429 0 0 1 36.571428 36.571428zM501.979429 235.739429L322.779429 463.725714a12.946286 12.946286 0 0 0 10.020571 20.918857h358.253714c10.752 0 16.822857-12.434286 10.093715-20.918857L522.020571 235.739429a12.8 12.8 0 0 0-20.041142 0z"  horiz-adv-x="1024" />

    
    <glyph glyph-name="xuanzhongkuang" unicode="&#59244;" d="M941.312 850.688H82.773333A37.290667 37.290667 0 0 1 45.226667 813.226667V-45.226667c0-20.650667 16.725333-37.376 37.376-37.376H941.226667a37.290667 37.290667 0 0 1 37.376 37.376V813.226667A37.290667 37.290667 0 0 1 941.226667 850.773333zM726.186667 554.666667l-245.76-340.650667a37.12 37.12 0 0 0-60.245334 0L274.602667 415.658667a9.386667 9.386667 0 0 0 7.594666 14.762666h54.613334c11.946667 0 23.296-5.717333 30.293333-15.530666l83.029333-115.2 183.466667 254.293333a37.290667 37.290667 0 0 0 30.208 15.530667h54.613333c7.68 0 12.117333-8.618667 7.68-14.848z"  horiz-adv-x="1024" />

    
    <glyph glyph-name="weixuankuang" unicode="&#59245;" d="M941.312 850.688H82.773333A37.290667 37.290667 0 0 1 45.226667 813.226667V-45.226667c0-20.650667 16.725333-37.376 37.376-37.376H941.226667a37.290667 37.290667 0 0 1 37.376 37.376V813.226667A37.290667 37.290667 0 0 1 941.226667 850.773333z m-46.677333-849.322667H129.365333V766.634667h765.269334v-765.269334z"  horiz-adv-x="1024" />

    
    <glyph glyph-name="daochu3x" unicode="&#59231;" d="M651.946667 166.656l165.546666 130.645333a9.386667 9.386667 0 0 1 0 14.677334L651.946667 442.709333a9.386667 9.386667 0 0 1-15.104-7.338666v-88.746667h-378.026667a9.386667 9.386667 0 0 1-9.386667-9.301333v-65.365334c0-5.12 4.266667-9.301333 9.386667-9.301333h378.026667V174.08a9.386667 9.386667 0 0 1 15.189333-7.338667z m304.896 472.490667L767.146667 828.842667a74.325333 74.325333 0 0 1-31.146667 18.688V850.688H82.688A37.290667 37.290667 0 0 1 45.226667 813.226667v-324.266667c0-5.12 4.266667-9.386667 9.386666-9.386667h65.28c5.12 0 9.386667 4.266667 9.386667 9.386667V766.549333h158.634667v-158.634666c0-20.650667 16.725333-37.376 37.376-37.376h373.248a37.290667 37.290667 0 0 1 37.376 37.376V741.205333l158.72-158.634666V488.96c0-5.12 4.181333-9.301333 9.301333-9.301333h65.28c5.12 0 9.386667 4.266667 9.386667 9.386666V586.325333a74.410667 74.410667 0 0 1-21.845334 52.736zM661.333333 645.290667h-298.666666V766.634667h298.666666v-121.258667z m308.053334-508.586667h-65.365334a9.386667 9.386667 0 0 1-9.386666-9.386667v-125.952H129.365333V127.317333a9.386667 9.386667 0 0 1-9.386666 9.386667H54.698667a9.386667 9.386667 0 0 1-9.386667-9.386667v-172.629333c0-20.650667 16.725333-37.376 37.376-37.376H941.226667a37.290667 37.290667 0 0 1 37.376 37.376V127.317333a9.386667 9.386667 0 0 1-9.386667 9.386667z"  horiz-adv-x="1024" />

    
    <glyph glyph-name="lijijiezhi3x" unicode="&#59232;" d="M1018.53952 500.650667h-298.666667a9.386667 9.386667 0 0 1-9.386666-9.386667v-55.893333c0-5.12 4.266667-9.386667 9.386666-9.386667h298.666667c5.12 0 9.386667 4.266667 9.386667 9.386667v55.978666a9.386667 9.386667 0 0 1-9.386667 9.386667z m-156.330667-158.72H719.872853a9.386667 9.386667 0 0 1-9.386666-9.301334v-55.978666c0-5.12 4.266667-9.386667 9.386666-9.386667h142.336c5.12 0 9.386667 4.266667 9.386667 9.386667v55.978666a9.386667 9.386667 0 0 1-9.386667 9.386667zM472.918187 605.184h-50.517334a13.056 13.056 0 0 1-13.141333-13.056v-289.28c0-4.266667 2.048-8.106667 5.376-10.581333L588.45952 165.461333c5.802667-4.181333 13.994667-2.986667 18.176 2.816l30.037333 40.96v0.085334a13.056 13.056 0 0 1-2.901333 18.261333L485.80352 334.421333V592.042667a12.970667 12.970667 0 0 1-12.885333 13.056z m382.037333-409.941333h-67.413333a19.2 19.2 0 0 1-16.213334-9.045334 374.528 374.528 0 0 0-170.154666-144.64 369.664 369.664 0 0 0-144.64-29.184 370.005333 370.005333 0 0 0-262.826667 108.885334A370.005333 370.005333 0 0 0 84.822187 384a369.237333 369.237333 0 0 0 108.885333 262.826667 370.005333 370.005333 0 0 0 262.826667 108.885333 370.005333 370.005333 0 0 0 262.826666-108.885333c19.882667-19.797333 37.12-41.472 51.968-64.938667a19.2 19.2 0 0 1 16.213334-9.045333h67.413333a10.666667 10.666667 0 0 1 9.557333 15.530666A456.277333 456.277333 0 0 1 461.99552 840.106667C209.920853 843.093333 0.512853 636.757333 0.000853 384.853333a456.362667 456.362667 0 0 1 456.448-457.130666 456.362667 456.362667 0 0 1 408.064 251.733333 10.666667 10.666667 0 0 1-9.557333 15.616z"  horiz-adv-x="1110" />

    
    <glyph glyph-name="bianjishijuan3x" unicode="&#59233;" d="M969.386667 384h-65.365334a9.386667 9.386667 0 0 1-9.386666-9.386667v-373.248H129.365333V766.634667H502.613333c5.12 0 9.301333 4.266667 9.301334 9.386666V841.301333a9.386667 9.386667 0 0 1-9.386667 9.386667H82.773333A37.290667 37.290667 0 0 1 45.226667 813.226667V-45.226667c0-20.650667 16.725333-37.376 37.376-37.376H941.226667a37.290667 37.290667 0 0 1 37.376 37.376V374.613333a9.386667 9.386667 0 0 1-9.386667 9.301334zM329.898667 357.290667L327.68 218.453333a18.773333 18.773333 0 0 1 18.688-18.858666h0.426667l137.642666 3.413333a9.642667 9.642667 0 0 1 6.314667 2.56l485.205333 484.266667a9.386667 9.386667 0 0 1 0 13.141333L830.890667 847.957333a9.642667 9.642667 0 0 1-13.312 0L332.629333 363.776a9.728 9.728 0 0 1-2.645333-6.485333z m74.069333-27.562667L824.32 749.226667l52.736-52.565334-420.608-419.669333-53.333333-1.28 0.853333 54.101333z"  horiz-adv-x="1024" />

    
    <glyph glyph-name="dahuizhongzuo3x" unicode="&#59234;" d="M260.010667 682.666667a9.386667 9.386667 0 0 1-9.386667-9.386667v-55.978667c0-5.12 4.266667-9.301333 9.386667-9.301333h448c5.12 0 9.386667 4.266667 9.386666 9.386667V673.28a9.386667 9.386667 0 0 1-9.386666 9.301333h-448zM484.010667 449.365333v55.978667a9.386667 9.386667 0 0 1-9.386667 9.386667H260.010667a9.386667 9.386667 0 0 1-9.386667-9.386667v-55.978667c0-5.12 4.266667-9.386667 9.386667-9.386666h214.613333c5.12 0 9.386667 4.266667 9.386667 9.386666zM428.032-12.629333H157.354667V808.704H810.666667v-401.408c0-5.12 4.266667-9.301333 9.386666-9.301333h65.28c5.12 0 9.386667 4.266667 9.386667 9.386666V855.296a37.290667 37.290667 0 0 1-37.376 37.290667h-746.666667a37.290667 37.290667 0 0 1-37.376-37.376v-914.602667c0-20.650667 16.725333-37.376 37.376-37.376h317.354667c5.12 0 9.301333 4.266667 9.301333 9.386667v65.28a9.386667 9.386667 0 0 1-9.386666 9.386666zM549.461333 122.197333a162.133333 162.133333 0 0 0 47.616 106.666667 163.84 163.84 0 0 0 241.92-11.776l-26.965333-20.906667a9.386667 9.386667 0 0 1 3.498667-16.469333l108.885333-26.282667a9.386667 9.386667 0 0 1 11.52 9.045334l0.768 111.274666a9.386667 9.386667 0 0 1-15.104 7.509334l-23.637333-18.517334a238.250667 238.250667 0 0 1-423.253334-139.776 9.386667 9.386667 0 0 1 9.301334-9.642666h56.064a9.301333 9.301333 0 0 1 9.386666 8.874666zM941.312 113.322667h-56.064a9.301333 9.301333 0 0 1-9.386667-8.874667 162.133333 162.133333 0 0 0-47.616-106.666667 163.84 163.84 0 0 0-241.92 11.861334l26.965334 20.821333a9.386667 9.386667 0 0 1-3.498667 16.469333L500.906667 73.216a9.386667 9.386667 0 0 1-11.52-8.96l-0.682667-111.36a9.386667 9.386667 0 0 1 15.018667-7.424l23.637333 18.432a238.250667 238.250667 0 0 1 423.253333 139.776 9.386667 9.386667 0 0 1-9.301333 9.642667z"  horiz-adv-x="1024" />

    
    <glyph glyph-name="filedone2X" unicode="&#59236;" d="M717.312 617.301333v56.064a9.386667 9.386667 0 0 1-9.386667 9.301334h-448a9.386667 9.386667 0 0 1-9.216-9.386667v-55.978667c0-5.12 4.181333-9.301333 9.301334-9.301333h448c5.12 0 9.386667 4.266667 9.386666 9.386667z m-457.386667-102.656a9.386667 9.386667 0 0 1-9.216-9.386666v-55.893334c0-5.12 4.181333-9.386667 9.301334-9.386666h214.613333c5.12 0 9.386667 4.266667 9.386667 9.386666v55.978667a9.386667 9.386667 0 0 1-9.386667 9.386667H260.010667z m438.784-135.338666a251.989333 251.989333 0 1 1 0-503.978667 251.989333 251.989333 0 0 1 0 503.978667z m125.44-377.429334a176.213333 176.213333 0 0 0-125.44-51.882666 176.213333 176.213333 0 0 0-125.44 51.882666 176.213333 176.213333 0 0 0-51.968 125.44c0 47.36 18.432 91.989333 51.968 125.44a176.213333 176.213333 0 0 0 125.44 51.882667c47.36 0 91.904-18.432 125.44-51.882667 33.450667-33.450667 51.882667-78.08 51.882667-125.44 0-47.36-18.432-91.904-51.968-125.44z m-21.674666 214.186667H750.933333a9.216 9.216 0 0 1-7.68-3.925333l-73.984-102.4-26.965333 37.205333a9.216 9.216 0 0 1-7.68 3.84h-51.370667a9.386667 9.386667 0 0 1-7.594666-14.848l86.186666-119.125333c3.669333-5.12 11.264-5.12 14.933334 0l133.290666 184.32a9.301333 9.301333 0 0 1-7.509333 14.848z m-374.442667-228.693333H157.354667V808.704H810.666667v-401.408c0-5.12 4.266667-9.301333 9.386666-9.301333h65.28c5.12 0 9.386667 4.266667 9.386667 9.386666V855.296a37.290667 37.290667 0 0 1-37.376 37.290667h-746.666667a37.290667 37.290667 0 0 1-37.376-37.376v-914.602667c0-20.650667 16.725333-37.376 37.376-37.376h317.354667c5.12 0 9.301333 4.266667 9.301333 9.386667v65.28a9.386667 9.386667 0 0 1-9.386666 9.386666z"  horiz-adv-x="1024" />

    
    <glyph glyph-name="filesync3x" unicode="&#59238;" d="M302.677333 682.666667a9.386667 9.386667 0 0 1-9.386666-9.386667v-55.978667c0-5.12 4.266667-9.301333 9.386666-9.301333h448c5.12 0 9.386667 4.266667 9.386667 9.386667V673.28a9.386667 9.386667 0 0 1-9.386667 9.301333h-448z m224-233.301334v55.978667a9.386667 9.386667 0 0 1-9.386666 9.386667H302.677333a9.386667 9.386667 0 0 1-9.386666-9.386667v-55.978667c0-5.12 4.266667-9.386667 9.386666-9.386666h214.613334c5.12 0 9.386667 4.266667 9.386666 9.386666z m-55.978666-461.994666H200.021333V808.704H853.333333v-401.408c0-5.12 4.266667-9.301333 9.386667-9.301333h65.28c5.12 0 9.386667 4.266667 9.386667 9.386666V855.296a37.290667 37.290667 0 0 1-37.376 37.290667h-746.666667a37.290667 37.290667 0 0 1-37.376-37.376v-914.602667c0-20.650667 16.725333-37.376 37.376-37.376h317.354667c5.12 0 9.301333 4.266667 9.301333 9.386667v65.28a9.386667 9.386667 0 0 1-9.386667 9.386666zM928 202.666667A10.666667 10.666667 0 0 1 938.666667 213.333333v74.666667A10.666667 10.666667 0 0 1 928 298.666667H692.650667l62.976 80.213333a10.666667 10.666667 0 0 1-8.362667 17.237333l-96.853333-0.085333a21.76 21.76 0 0 1-16.810667-8.192l-91.306667-116.053333a42.752 42.752 0 0 1 33.706667-69.12h352zM544 117.333333a10.666667 10.666667 0 0 1-10.666667-10.666666v-74.666667c0-5.888 4.778667-10.666667 10.666667-10.666667h235.349333l-62.976-80.213333a10.666667 10.666667 0 0 1 8.362667-17.237333l96.853333 0.085333a21.76 21.76 0 0 1 16.810667 8.192l91.306667 116.053333a42.752 42.752 0 0 1-33.706667 69.12H544z"  horiz-adv-x="1024" />

    
    <glyph glyph-name="bianzu19xia3x" unicode="&#59239;" d="M709.060096 564.0192H315.024896c-11.8784 0-18.432 12.4928-11.1616 20.992L500.983296 813.4656a15.0528 15.0528 0 0 0 22.1184 0l197.12-228.4544c7.2704-8.4992 0.7168-20.992-11.1616-20.992zM709.060096 203.9808H315.024896c-11.8784 0-18.432-12.4928-11.1616-20.992l197.12-228.4544a15.0528 15.0528 0 0 1 22.1184 0l197.12 228.4544c7.2704 8.4992 0.7168 20.992-11.1616 20.992z"  horiz-adv-x="1024" />

    
    <glyph glyph-name="bianzu193x" unicode="&#59240;" d="M709.060096 203.9808H315.024896c-11.8784 0-18.432-12.4928-11.1616-20.992l197.12-228.4544a15.0528 15.0528 0 0 1 22.1184 0l197.12 228.4544c7.2704 8.4992 0.7168 20.992-11.1616 20.992zM709.060096 564.0192H315.024896c-11.8784 0-18.432 12.4928-11.1616 20.992L500.983296 813.4656a15.0528 15.0528 0 0 0 22.1184 0l197.12-228.4544c7.2704-8.4992 0.7168-20.992-11.1616-20.992z"  horiz-adv-x="1024" />

    
    <glyph glyph-name="Search3x" unicode="&#59241;" d="M966.436571-7.460571L669.622857 289.353143c46.08 59.538286 70.948571 132.388571 70.948572 208.969143a340.845714 340.845714 0 0 1-100.425143 242.395428A340.333714 340.333714 0 0 1 397.677714 841.142857a340.845714 340.845714 0 0 1-242.395428-100.425143A340.114286 340.114286 0 0 1 54.857143 498.322286c0-91.574857 35.84-177.737143 100.425143-242.468572a340.114286 340.114286 0 0 1 242.395428-100.425143 340.114286 340.114286 0 0 1 208.822857 70.875429l296.813715-296.667429c3.657143-3.657143 9.581714-3.657143 13.238857 0l49.810286 49.737143a9.362286 9.362286 0 0 1 0 13.165715z m-387.657142 324.754285a254.610286 254.610286 0 0 0-181.101715-75.044571 254.610286 254.610286 0 0 0-181.028571 75.044571 254.610286 254.610286 0 0 0-74.971429 180.955429c0 68.388571 26.697143 132.754286 74.971429 181.028571a254.610286 254.610286 0 0 0 181.028571 75.044572c68.388571 0 132.754286-26.550857 181.028572-74.971429a254.610286 254.610286 0 0 0 75.044571-181.028571c0-68.388571-26.697143-132.754286-75.044571-181.028572z"  horiz-adv-x="1024" />

    
    <glyph glyph-name="bianzu19" unicode="&#59242;" d="M709.060096 203.9808H315.024896c-11.8784 0-18.432-12.4928-11.1616-20.992l197.12-228.4544a15.0528 15.0528 0 0 1 22.1184 0l197.12 228.4544c7.2704 8.4992 0.7168 20.992-11.1616 20.992zM709.060096 564.0192H315.024896c-11.8784 0-18.432 12.4928-11.1616 20.992L500.983296 813.4656a15.0528 15.0528 0 0 0 22.1184 0l197.12-228.4544c7.2704-8.4992 0.7168-20.992-11.1616-20.992z"  horiz-adv-x="1024" />

    
    <glyph glyph-name="TAR" unicode="&#59230;" d="M916.945455-109.381818H139.636364c-69.818182 0-130.327273 55.854545-130.327273 130.327273V756.363636C9.309091 826.181818 65.163636 886.690909 139.636364 886.690909h572.509091l330.472727-302.545454v-563.2c0-69.818182-55.854545-130.327273-125.672727-130.327273zM139.636364 812.218182c-32.581818 0-55.854545-23.272727-55.854546-55.854546v-735.418181c0-32.581818 27.927273-55.854545 55.854546-55.854546h777.309091c32.581818 0 55.854545 27.927273 55.854545 55.854546V551.563636l-288.581818 260.654546H139.636364zM1010.036364 556.218182h-344.436364V849.454545h69.818182v-223.418181h274.618182zM386.327273 356.072727h-93.090909v-293.236363h-37.236364v293.236363h-93.090909v37.236364h228.072727v-37.236364zM660.945455 67.490909h-41.89091l-32.581818 93.090909h-139.636363l-32.581819-93.090909H372.363636l125.672728 325.818182h37.236363l125.672728-325.818182z m-88.436364 125.672727l-51.2 139.636364c0 4.654545-4.654545 13.963636-4.654546 23.272727 0-9.309091-4.654545-18.618182-4.654545-23.272727l-51.2-139.636364h111.709091zM940.218182 67.490909h-46.545455l-55.854545 93.090909c-4.654545 9.309091-9.309091 13.963636-13.963637 23.272727l-13.963636 13.963637c-4.654545 4.654545-9.309091 4.654545-13.963636 9.309091-4.654545 0-13.963636 4.654545-18.618182 4.654545H744.727273v-139.636363h-37.236364v325.818181h97.745455c13.963636 0 27.927273 0 37.236363-4.654545 13.963636-4.654545 23.272727-9.309091 32.581818-13.963636 9.309091-9.309091 13.963636-18.618182 18.618182-27.927273 4.654545-9.309091 9.309091-23.272727 9.309091-37.236364 0-9.309091 0-23.272727-4.654545-32.581818-4.654545-9.309091-9.309091-18.618182-13.963637-23.272727-4.654545-9.309091-13.963636-13.963636-23.272727-18.618182l-27.927273-13.963636c4.654545-4.654545 9.309091-4.654545 13.963637-9.309091 4.654545-4.654545 9.309091-4.654545 9.309091-9.309091s9.309091-9.309091 9.309091-13.963637c4.654545-4.654545 9.309091-9.309091 13.963636-18.618181l60.509091-107.054546zM744.727273 356.072727v-116.363636h51.2c9.309091 0 18.618182 0 27.927272 4.654545 9.309091 4.654545 13.963636 9.309091 23.272728 13.963637 4.654545 4.654545 9.309091 13.963636 13.963636 18.618182 4.654545 9.309091 4.654545 18.618182 4.654546 27.927272 0 18.618182-4.654545 32.581818-18.618182 41.890909-9.309091 9.309091-27.927273 13.963636-51.2 13.963637H744.727273z"  horiz-adv-x="1070" />

    
    <glyph glyph-name="ZIP" unicode="&#59229;" d="M916.945455-109.381818H139.636364c-69.818182 0-130.327273 55.854545-130.327273 130.327273V756.363636C9.309091 826.181818 65.163636 886.690909 139.636364 886.690909h572.509091l330.472727-302.545454v-563.2c0-69.818182-55.854545-130.327273-125.672727-130.327273zM139.636364 812.218182c-32.581818 0-55.854545-23.272727-55.854546-55.854546v-735.418181c0-32.581818 27.927273-55.854545 55.854546-55.854546h777.309091c32.581818 0 55.854545 27.927273 55.854545 55.854546V551.563636l-288.581818 260.654546H139.636364zM1010.036364 556.218182h-344.436364V849.454545h69.818182v-223.418181h274.618182zM456.145455 384l-190.836364-283.927273h186.181818v-32.581818H209.454545v9.309091l190.836364 279.272727H223.418182v37.236364h232.727273v-9.309091zM544.581818 67.490909h-37.236363v325.818182h37.236363v-325.818182zM670.254545 188.509091v-121.018182h-37.236363v325.818182h88.436363c32.581818 0 60.509091-9.309091 79.127273-23.272727 18.618182-18.618182 27.927273-41.890909 27.927273-69.818182s-9.309091-55.854545-32.581818-74.472727c-23.272727-18.618182-51.2-27.927273-88.436364-27.927273h-37.236364z m0 167.563636v-134.981818h41.89091c27.927273 0 46.545455 4.654545 60.50909 18.618182 13.963636 13.963636 18.618182 27.927273 18.618182 51.2 0 41.890909-23.272727 65.163636-74.472727 65.163636h-46.545455z"  horiz-adv-x="1070" />

    
    <glyph glyph-name="wenjianjia1" unicode="&#59228;" d="M529.709176 896a12.047059 12.047059 0 0 0 7.228236-2.409412l129.204706-97.219764h280.877176a120.470588 120.470588 0 0 0 120.470588-120.470589v-605.665882a120.470588 120.470588 0 0 0-120.470588-120.470588H120.470588a120.470588 120.470588 0 0 0-120.470588 120.470588V835.764706a60.235294 60.235294 0 0 0 60.235294 60.235294h469.473882z m357.376-197.150118H98.605176v-591.390117h788.48V698.849882zM0 600.244706h1084.235294v-599.582118a90.352941 90.352941 0 0 0-90.352941-90.352941h-903.529412a90.352941 90.352941 0 0 0-90.352941 90.352941V600.304941z"  horiz-adv-x="1084" />

    
    <glyph glyph-name="wenjia" unicode="&#59227;" d="M824.888889-128H199.111111c-62.577778 0-113.777778 51.2-113.777778 113.777778V782.222222C85.333333 844.8 136.533333 896 199.111111 896h506.311111L938.666667 651.377778V-14.222221999999988c0-62.577778-51.2-113.777778-113.777778-113.777778zM199.111111 810.666667c-17.066667 0-28.444444-11.377778-28.444444-28.444445v-796.444444c0-17.066667 11.377778-28.444444 28.444444-28.444445h625.777778c17.066667 0 28.444444 11.377778 28.444444 28.444445V617.2444439999999l-182.044444 193.422223H199.111111zM739.555556 99.55555600000002h-455.111112c-17.066667 0-28.444444 11.377778-28.444444 28.444444s11.377778 28.444444 28.444444 28.444444h455.111112c17.066667 0 28.444444-11.377778 28.444444-28.444444s-11.377778-28.444444-28.444444-28.444444zM625.777778 554.666667h-341.333334c-17.066667 0-28.444444 11.377778-28.444444 28.444444s11.377778 28.444444 28.444444 28.444445h341.333334c17.066667 0 28.444444-11.377778 28.444444-28.444445s-11.377778-28.444444-28.444444-28.444444zM739.555556 327.11111100000005h-455.111112c-17.066667 0-28.444444 11.377778-28.444444 28.444445s11.377778 28.444444 28.444444 28.444444h455.111112c17.066667 0 28.444444-11.377778 28.444444-28.444444s-11.377778-28.444444-28.444444-28.444445z"  horiz-adv-x="1024" />

    
    <glyph glyph-name="xiazai2" unicode="&#59226;" d="M602.352941 155.105882c-24.094118 0-48.188235 18.070588-48.188235 48.188236V835.764706c0 24.094118 18.070588 48.188235 48.188235 48.188235s48.188235-24.094118 48.188235-48.188235v-638.494118c0-24.094118-18.070588-42.164706-48.188235-42.164706zM602.352941 137.035294L222.870588 486.4c-18.070588 12.047059-18.070588 42.164706-6.023529 60.235294 18.070588 18.070588 48.188235 18.070588 66.258823 6.02353l319.247059-295.152942 325.270588 289.129412c18.070588 18.070588 48.188235 18.070588 66.258824-6.023529 18.070588-18.070588 18.070588-48.188235-6.023529-66.258824L602.352941 137.035294zM1017.976471-109.929412H180.705882c-90.352941 0-168.658824 72.282353-168.658823 168.658824v186.729412c0 24.094118 18.070588 48.188235 48.188235 48.188235s48.188235-18.070588 48.188235-48.188235v-186.729412c0-42.164706 36.141176-72.282353 72.282353-72.282353h837.270589c42.164706 0 72.282353 36.141176 72.282353 72.282353v186.729412c0 24.094118 18.070588 48.188235 48.188235 48.188235s48.188235-18.070588 48.188235-48.188235v-186.729412c0-90.352941-78.305882-168.658824-168.658823-168.658824z"  horiz-adv-x="1204" />

    
    <glyph glyph-name="fuzhi5" unicode="&#59225;" d="M939.670588 149.082353H481.882353c-90.352941 0-168.658824 72.282353-168.658824 168.658823V727.341176C313.223529 823.717647 391.529412 896 481.882353 896h457.788235c90.352941 0 168.658824-72.282353 168.658824-168.658824v-415.623529c-6.023529-90.352941-78.305882-162.635294-168.658824-162.635294zM481.882353 805.647059c-42.164706 0-72.282353-36.141176-72.282353-72.282353v-415.62353c0-42.164706 36.141176-72.282353 72.282353-72.282352h457.788235c42.164706 0 72.282353 36.141176 72.282353 72.282352V727.341176c0 42.164706-36.141176 72.282353-72.282353 72.282353H481.882353zM728.847059-91.858824h-602.352941c-60.235294 0-108.423529 42.164706-108.42353 102.4V649.035294c0 54.211765 48.188235 102.4 108.42353 102.4h108.423529V655.058824H126.494118c-12.047059 0-18.070588-6.023529-18.070589-6.02353v-638.494118c0-6.023529 6.023529-12.047059 18.070589-12.047058h602.352941c12.047059 0 18.070588 6.023529 18.070588 12.047058v90.352942h90.352941v-90.352942c0-54.211765-48.188235-102.4-108.423529-102.4z"  horiz-adv-x="1144" />

    
    <glyph glyph-name="cangku" unicode="&#59224;" d="M512-128C246.964706-128 36.141176-1.505882 36.141176 155.105882c0 42.164706 12.047059 78.305882 42.164706 120.470589l78.305883-60.235295c-12.047059-18.070588-24.094118-42.164706-24.094118-60.235294 0-90.352941 156.611765-186.729412 379.482353-186.729411 222.870588 0 379.482353 96.376471 379.482353 186.729411 0 18.070588-6.023529 36.141176-18.070588 54.211765l78.305882 54.211765c24.094118-36.141176 36.141176-66.258824 36.141177-108.42353 0-156.611765-210.823529-283.105882-475.858824-283.105882zM512 131.011765c-265.035294 0-475.858824 120.470588-475.858824 271.058823 0 48.188235 24.094118 96.376471 66.258824 138.541177L168.658824 474.352941c-24.094118-24.094118-36.141176-48.188235-36.141177-72.282353 0-84.329412 156.611765-174.682353 379.482353-174.682353 222.870588 0 379.482353 90.352941 379.482353 174.682353 0 36.141176-24.094118 60.235294-48.188235 78.305883l60.235294 72.282353c54.211765-42.164706 84.329412-96.376471 84.329412-156.611765 0-144.564706-210.823529-265.035294-475.858824-265.035294zM512 359.905882c-271.058824 0-481.882353 120.470588-481.882353 265.035294S240.941176 896 512 896s481.882353-120.470588 481.882353-265.035294-210.823529-271.058824-481.882353-271.058824z m0 439.717647c-228.894118 0-385.505882-90.352941-385.505882-168.658823S283.105882 456.282353 512 456.282353c228.894118 0 385.505882 90.352941 385.505882 168.658823S740.894118 799.623529 512 799.623529z"  horiz-adv-x="1024" />

    
    <glyph glyph-name="gongxianzhe" unicode="&#59223;" d="M498.346667 254.293333C341.333333 254.293333 211.626667 377.173333 211.626667 541.013333S341.333333 827.733333 498.346667 827.733333s286.72-129.706667 286.72-286.72-122.88-286.72-286.72-286.72z m0 464.213334c-95.573333 0-177.493333-81.92-177.493334-177.493334s81.92-177.493333 177.493334-177.493333S682.666667 438.613333 682.666667 541.013333 600.746667 718.506667 498.346667 718.506667zM885.282133 260.846933v109.226667c95.573333 0 177.493333 81.92 177.493334 177.493333s-81.92 177.493333-177.493334 177.493334v109.226666c157.013333 0 286.72-129.706667 286.72-286.72s-129.706667-286.72-286.72-286.72zM1212.962133 15.086933c-20.48 163.84-163.84 286.72-327.68 286.72v109.226667c218.453333 0 402.773333-163.84 436.906667-375.466667l-109.226667-20.48zM880.64-121.173333c-27.306667 211.626667-191.146667 368.64-375.466667 368.64s-348.16-157.013333-375.466666-368.64l-109.226667 13.653333c34.133333 259.413333 245.76 464.213333 484.693333 464.213333s450.56-197.973333 484.693334-464.213333l-109.226667-13.653333z"  horiz-adv-x="1365" />

    
    <glyph glyph-name="fahangban" unicode="&#59221;" d="M881.777778-93.866667l-318.577778 170.666667 45.511111 79.644444 199.111111-108.088888 68.266667 665.6L204.8 435.2l142.222222-113.777778-56.888889-73.955555L22.755556 463.644444 984.177778 850.488889zM466.488889-25.6H375.466667v261.688889l517.688889 574.577778 68.266666-56.888889-494.933333-551.822222z"  horiz-adv-x="1024" />

    
    <glyph glyph-name="biaoqian3" unicode="&#59220;" d="M597.333333-76.8c-34.133333 0-68.266667 11.377778-91.022222 34.133333L5.688889 418.133333 79.644444 878.933333h438.044445l426.666667-455.111111c45.511111-51.2 51.2-130.844444 0-182.044444l-244.622223-278.755556c-22.755556-22.755556-56.888889-39.822222-102.4-39.822222 5.688889 0 5.688889 0 0 0zM108.088889 457.955556L568.888889 25.6c11.377778-5.688889 17.066667-11.377778 34.133333-11.377778 11.377778 0 22.755556 5.688889 34.133334 17.066667l244.622222 278.755555c17.066667 17.066667 17.066667 45.511111 0 62.577778L483.555556 799.288889H159.288889l-51.2-341.333333zM398.222222 543.288889m-113.777778 0a113.777778 113.777778 0 1 1 227.555556 0 113.777778 113.777778 0 1 1-227.555556 0Z"  horiz-adv-x="1024" />

    
    <glyph glyph-name="fenzhi1" unicode="&#59219;" d="M267.377778 531.911111C164.977778 531.911111 85.333333 611.555556 85.333333 713.955556S164.977778 896 267.377778 896s182.044444-79.644444 182.044444-182.044444S369.777778 531.911111 267.377778 531.911111z m0 273.066667c-51.2 0-91.022222-39.822222-91.022222-91.022222s39.822222-91.022222 91.022222-91.022223 91.022222 39.822222 91.022222 91.022223-39.822222 91.022222-91.022222 91.022222zM267.377778-105.244444c-102.4 0-182.044444 79.644444-182.044445 182.044444s79.644444 182.044444 182.044445 182.044444 182.044444-79.644444 182.044444-182.044444-79.644444-182.044444-182.044444-182.044444z m0 273.066666c-51.2 0-91.022222-39.822222-91.022222-91.022222 0-51.2 39.822222-91.022222 91.022222-91.022222s91.022222 39.822222 91.022222 91.022222c0 51.2-39.822222 91.022222-91.022222 91.022222zM750.933333 213.333333C665.6 213.333333 597.333333 281.6 597.333333 366.933333c0 85.333333 68.266667 153.6 153.6 153.6 85.333333 0 153.6-68.266667 153.6-153.6 0-85.333333-68.266667-153.6-153.6-153.6z m0 216.177778c-34.133333 0-62.577778-28.444444-62.577777-62.577778 0-34.133333 28.444444-62.577778 62.577777-62.577777s62.577778 28.444444 62.577778 62.577777c0 34.133333-28.444444 62.577778-62.577778 62.577778zM194.446222 160.995556l5.802667 432.298666 91.022222-1.251555-5.802667-432.355556zM330.524444 590.734222l50.801778 75.548445 287.971556-193.649778-50.801778-75.548445z"  horiz-adv-x="1024" />

    
    <glyph glyph-name="xiangmuleibie" unicode="&#59217;" d="M542.117647 317.741176c-6.023529 0-12.047059 0-18.070588 6.02353l-481.882353 246.964706C24.094118 576.752941 12.047059 594.823529 12.047059 612.894118c0 18.070588 12.047059 30.117647 24.094117 42.164706L505.976471 877.929412c12.047059 6.023529 24.094118 6.023529 42.164705 0l493.929412-234.917647c18.070588-6.023529 24.094118-24.094118 24.094118-42.164706s-12.047059-30.117647-24.094118-42.164706L566.211765 323.764706c-6.023529-6.023529-18.070588-6.023529-24.094118-6.02353zM162.635294 612.894118L542.117647 414.117647l373.458824 186.729412-385.505883 186.729412-367.435294-174.682353zM542.117647 124.988235c-6.023529 0-12.047059 0-18.070588 6.02353L42.164706 353.882353C18.070588 365.929412 12.047059 390.023529 18.070588 414.117647s36.141176 30.117647 60.235294 24.094118l457.788236-216.847059 457.788235 240.941176c24.094118 12.047059 48.188235 6.023529 60.235294-18.070588 12.047059-24.094118 6.023529-48.188235-18.070588-60.235294l-481.882353-252.988235s-6.023529-6.023529-12.047059-6.02353zM542.117647-85.835294c-6.023529 0-12.047059 0-18.070588 6.023529l-481.882353 222.870589c-24.094118 12.047059-30.117647 36.141176-24.094118 60.235294 12.047059 24.094118 36.141176 30.117647 60.235294 24.094117l457.788236-216.847059 457.788235 240.941177c24.094118 12.047059 48.188235 6.023529 60.235294-18.070588 12.047059-24.094118 6.023529-48.188235-18.070588-60.235294l-481.882353-252.988236c0-6.023529-6.023529-6.023529-12.047059-6.023529z"  horiz-adv-x="1084" />

    
    <glyph glyph-name="ziyuan1" unicode="&#59218;" d="M627.638-127.995c-0.002-0-0.004-0-0.006-0-41.274 0-79.315 13.84-109.737 37.132-351.096 269.596-625.954 622.565-797.004 1029.886 250.325-459.871 250.891-232.19 392.484-124.58 212.388 161.415 413.449 50.407 514.829-56.637 101.38 104.778 302.441 215.787 514.829 56.637 141.026-107.61 141.592-335.29 47.575-459.892-274.547-346.797-631.598-616.683-1042.062-781.805 559.118 312.875 521.353 299.254 480.407 299.254-0.462 0-0.925 0.002-1.386 0.005zM336.524 813.31c-67.62-1.528-129.121-26.527-176.957-67.135-96.599-73.325-97.732-250.032-28.068-341.784 264.168-335.001 607.892-595.919 1003.221-756.039-551.982 312.962-531.271 305.34-508.781 305.34 22.491 0 43.201 7.622 59.69 20.423 338.927 260.212 604.142 600.67 769.28 993.557-263.734-472.096-264.867-295.389-364.548-219.495-231.645 178.406-421.945-65.132-429.874-75.893-7.61-10-19.509-16.397-32.903-16.425-0.033-0.001-0.137-0.001-0.24-0.001-13.179 0-24.918 6.166-32.489 15.771-5.731 8.583-110.509 141.68-258.331 141.68z"  horiz-adv-x="1255" />

    
    <glyph glyph-name="xiangmuleixing" unicode="&#59216;" d="M844.8-128H179.2C76.8-128 0-51.2 0 44.8V716.8C0 819.2 76.8 896 179.2 896h672C947.2 896 1024 819.2 1024 716.8v-672c0-96-76.8-172.8-179.2-172.8zM179.2 800c-44.8 0-76.8-38.4-76.8-76.8v-672c0-44.8 38.4-76.8 76.8-76.8h672c44.8 0 76.8 38.4 76.8 76.8V716.8c0 44.8-38.4 76.8-76.8 76.8H179.2zM812.8 153.6H256c-19.2 0-38.4 19.2-38.4 38.4s19.2 38.4 38.4 38.4h556.8c19.2 0 38.4-19.2 38.4-38.4s-19.2-38.4-38.4-38.4zM556.8 473.6H256c-19.2 0-38.4 19.2-38.4 38.4s19.2 38.4 38.4 38.4h300.8c19.2 0 38.4-19.2 38.4-38.4s-19.2-38.4-38.4-38.4zM812.8 473.6H704c-19.2 0-38.4 19.2-38.4 38.4s19.2 38.4 38.4 38.4h108.8c19.2 0 38.4-19.2 38.4-38.4s-19.2-38.4-38.4-38.4z"  horiz-adv-x="1024" />

    
    <glyph glyph-name="xuanzhong" unicode="&#59211;" d="M512 866.461538C245.563077 866.461538 29.538462 650.436923 29.538462 384S245.563077-98.461538 512-98.461538 994.461538 117.563077 994.461538 384 778.436923 866.461538 512 866.461538zM720.384 541.538462l-226.816-314.44677a34.264615 34.264615 0 0 0-55.650462 0l-134.301538 186.092308a8.664615 8.664615 0 0 0 7.010462 13.666462h50.491076a34.264615 34.264615 0 0 0 27.884308-14.296616l76.681846-106.417231 169.314462 234.771693a34.422154 34.422154 0 0 0 27.884308 14.336h50.491076a8.664615 8.664615 0 0 0 7.010462-13.705846z"  horiz-adv-x="1024" />

    
    <glyph glyph-name="weixuanzhong" unicode="&#59213;" d="M713.373538 555.244308h-50.491076a34.264615 34.264615 0 0 1-27.884308-14.336l-169.314462-234.771693-76.681846 106.417231a34.422154 34.422154 0 0 1-27.884308 14.296616H310.626462a8.664615 8.664615 0 0 1-7.010462-13.666462l134.183385-186.092308a34.264615 34.264615 0 0 1 55.689846 0L720.265846 541.538462a8.585846 8.585846 0 0 1-6.892308 13.705846zM512 866.461538C245.563077 866.461538 29.538462 650.436923 29.538462 384S245.563077-98.461538 512-98.461538 994.461538 117.563077 994.461538 384 778.436923 866.461538 512 866.461538z m0-883.081846C290.816-16.620308 111.379692 162.816 111.379692 384 111.379692 605.184 290.816 784.620308 512 784.620308c221.184 0 400.620308-179.436308 400.620308-400.620308 0-221.184-179.436308-400.620308-400.620308-400.620308z"  horiz-adv-x="1024" />

    
    <glyph glyph-name="fuzhi4" unicode="&#59210;" d="M791.978667 701.3546670000001H82.773333a37.290667 37.290667 0 0 1-37.376-37.376v-709.290667c0-20.650667 16.725333-37.376 37.376-37.376H791.893333a37.290667 37.290667 0 0 1 37.376 37.376V663.893333a37.290667 37.290667 0 0 1-37.376 37.376z m-46.677334-699.989334H129.365333V617.301333h615.936v-615.936zM941.312 850.688H222.72a9.386667 9.386667 0 0 1-9.301333-9.386667v-65.28c0-5.12 4.266667-9.386667 9.386666-9.386666h671.914667V94.72000000000003c0-5.12 4.266667-9.301333 9.386667-9.301333h65.28c5.12 0 9.386667 4.266667 9.386666 9.386666V813.226667A37.290667 37.290667 0 0 1 941.226667 850.773333z"  horiz-adv-x="1024" />

    
    <glyph glyph-name="shezhi4" unicode="&#59214;" d="M983.630276 253.910842l-74.802755 63.980852a410.866748 410.866748 0 0 1 0 132.129598l74.802755 63.980852a36.560487 36.560487 0 0 1 10.602541 40.216535l-1.023693 2.924839a506.947706 506.947706 0 0 1-91.035612 157.575697l-2.047387 2.412992a36.706728 36.706728 0 0 1-40.143414 10.821904l-92.863636-32.977559a402.604078 402.604078 0 0 1-113.922476 65.808876L635.281961 857.89008a36.560487 36.560487 0 0 1-29.467753 29.32151L602.670007 887.796558a516.160949 516.160949 0 0 1-181.705618 0l-3.071081-0.584968a36.560487 36.560487 0 0 1-29.467753-29.32151l-18.06088-97.616499a402.01911 402.01911 0 0 1-113.118145-65.516392l-93.594846 33.196922a36.560487 36.560487 0 0 1-40.070293-10.821904l-2.047387-2.412992A509.653182 509.653182 0 0 1 30.571513 557.143518l-1.023693-2.924839a36.706728 36.706728 0 0 1 10.602541-40.216535l75.753328-64.712062a402.01911 402.01911 0 0 1 0-130.447816l-75.753328-64.63894a36.560487 36.560487 0 0 1-10.602541-40.216535l1.023693-2.99796A508.263884 508.263884 0 0 1 121.534004 53.340013l2.047387-2.412992a36.706728 36.706728 0 0 1 40.070293-10.821904l93.594846 33.270043a399.240513 399.240513 0 0 1 113.118145-65.589513l18.06088-97.616499a36.560487 36.560487 0 0 1 29.467753-29.32151l3.071081-0.584968a513.455473 513.455473 0 0 1 181.705618 0l3.07108 0.584968a36.560487 36.560487 0 0 1 29.467753 29.32151l17.914638 97.177773a399.898602 399.898602 0 0 1 113.922476 65.808876l92.863636-33.05068a36.560487 36.560487 0 0 1 40.143414 10.821904l2.047387 2.412992a509.653182 509.653182 0 0 1 91.035612 157.575697l1.023693 2.924839a36.414245 36.414245 0 0 1-10.602541 39.997172zM827.663241 436.493912a323.340943 323.340943 0 0 0 0-105.294201l-7.53146-45.84685 85.332175-72.974731c-12.869291-29.833357-29.248389-57.911811-48.625447-84.089119l-106.025411 37.58418-35.902398-29.467752c-27.274123-22.448139-57.765569-39.997172-90.670006-52.354617l-43.433858-16.305977-20.473873-110.851395c-32.173228-3.656049-64.931424-3.656049-97.104652 0l-20.473873 111.070758-43.141374 16.52534a319.611773 319.611773 0 0 0-89.938797 52.208375l-35.829276 29.613994-106.756621-37.949785a431.706225 431.706225 0 0 0-48.698568 84.089119l86.282748 73.705941-7.458339 45.700608a314.932031 314.932031 0 0 0 0 103.978023l7.458339 45.700609-86.282748 73.70594c12.942412 29.833357 29.248389 57.911811 48.698568 84.08912l106.756621-37.949786 35.829276 29.613995c27.05476 22.228776 57.326843 39.85093 89.938797 52.208374l43.287616 16.305977 20.473873 111.070758c32.026986 3.656049 64.858303 3.656049 97.031531 0l20.473873-110.851395 43.506979-16.305977c32.831317-12.357444 63.322763-29.979599 90.670006-52.354616l35.829277-29.467753 106.025411 37.584181c19.450179-26.177308 35.683035-54.402004 48.698568-84.089119l-85.332175-72.974732 7.385218-45.627487zM512 596.336359a201.082676 201.082676 0 1 1 0-402.165352 201.082676 201.082676 0 0 1 0 402.165352zM602.523765 304.876161c-24.276163-24.129921-56.303149-37.511059-90.523765-37.51106-34.147494 0-66.247602 13.381138-90.450644 37.51106a127.522977 127.522977 0 0 0-37.511059 90.450643c0 34.147494 13.381138 66.320723 37.511059 90.523765 24.129921 24.203042 56.303149 37.437938 90.450644 37.437938 34.147494 0 66.247602-13.234896 90.523765-37.437938 24.129921-24.276163 37.437938-56.303149 37.437938-90.523765 0-34.147494-13.381138-66.247602-37.437938-90.450643z"  horiz-adv-x="1024" />

    
    <glyph glyph-name="bianji2X" unicode="&#59209;" d="M859.025066 604.880668L733.465686 730.293794a57.18546 57.18546 0 0 0 0 80.805542l68.227665 68.227665a57.18546 57.18546 0 0 0 80.732415 0l125.486253-125.486253c22.303792-22.230665 22.303792-58.50175 0-80.732414l-68.227666-68.227666a56.819824 56.819824 0 0 0-80.659287 0z m-73.858459-153.786474c21.499393 21.426266 26.910805 50.823395 12.065986 65.52196l-152.689567 152.835821c-14.698565 14.698565-44.095694 9.36028-65.595086-12.065986L19.74434 113.100336a63.913161 63.913161 0 0 1-18.866814-38.318646l0.292509-152.835821a43.803185 43.803185 0 0 1 48.629579-48.702707l152.835821-1.243162a63.620653 63.620653 0 0 1 38.318646 18.866814l544.285653 560.154253z m180.258516-432.254802H566.516318c-15.356709 0-29.982147-6.069557-40.658716-16.965508-19.598086-19.598086-51.774048-52.870956-78.611726-80.732414a28.373349 28.373349 0 0 1 20.475612-48.117689h497.264872a58.355495 58.355495 0 0 1 58.209241 58.136113v30.055274a58.062987 58.062987 0 0 1-57.770478 57.624224z"  horiz-adv-x="1024" />

    
    <glyph glyph-name="duohanggongshi" unicode="&#59208;" d="M665.6 418.133333h17.066667v113.777778H295.822222l193.422222-227.555555-216.177777-216.177778h409.6l34.133333 130.844444h-22.755556c0-11.377778-5.688889-17.066667-11.377777-28.444444s-17.066667-17.066667-28.444445-22.755556H426.666667l164.977777 164.977778-136.533333 159.288889H597.333333c22.755556-5.688889 45.511111-11.377778 56.888889-22.755556 5.688889-17.066667 11.377778-34.133333 11.377778-51.2zM807.822222-116.622222H233.244444c-62.577778 0-119.466667 51.2-119.466666 119.466666V748.088889C113.777778 810.666667 164.977778 867.555556 233.244444 867.555556h443.733334l244.622222-233.244445v-637.155555c0-62.577778-51.2-113.777778-113.777778-113.777778zM233.244444 810.666667c-34.133333 0-62.577778-28.444444-62.577777-62.577778v-750.933333c0-34.133333 28.444444-62.577778 62.577777-62.577778h574.577778c34.133333 0 62.577778 28.444444 62.577778 62.577778V611.555556L654.222222 810.666667H233.244444zM898.844444 594.488889h-176.355555c-45.511111 0-85.333333 39.822222-85.333333 85.333333V839.111111h56.888888v-159.288889c0-17.066667 11.377778-28.444444 28.444445-28.444444h176.355555v-56.888889z"  horiz-adv-x="1024" />

    
    <glyph glyph-name="hangneigongshi" unicode="&#59207;" d="M907.946667 636.586667h34.133333V896H54.613333l443.733334-525.653333L0-128h942.08l81.92 307.2h-54.613333c0-20.48-13.653333-40.96-27.306667-68.266667s-34.133333-40.96-68.266667-47.786666H348.16l382.293333 375.466666-327.68 375.466667h327.68c61.44-6.826667 102.4-27.306667 129.706667-54.613333 34.133333-34.133333 47.786667-75.093333 47.786667-122.88z"  horiz-adv-x="1024" />

    
    <glyph glyph-name="quxiaozhiding" unicode="&#59206;" d="M480.492308 29.538462c-31.507692 0-63.015385 15.753846-86.646154 31.507692v7.876923L86.646154 407.630769C70.892308 431.261538 55.138462 462.769231 55.138462 494.276923c0 31.507692 15.753846 63.015385 39.384615 78.769231 23.630769 15.753846 47.261538 31.507692 78.769231 31.507692h102.4V738.461538c0 63.015385 55.138462 118.153846 118.153846 118.153847h228.430769c63.015385 0 118.153846-55.138462 118.153846-118.153847v-133.907692h78.769231c63.015385 0 118.153846-55.138462 118.153846-118.153846 0-31.507692-15.753846-63.015385-31.507692-86.646154l-338.707692-338.707692c-23.630769-23.630769-55.138462-39.384615-86.646154-31.507692zM173.292308 525.784615c-7.876923 0-15.753846 0-23.63077-7.876923-15.753846-15.753846-15.753846-39.384615 0-55.138461l307.2-338.707693c7.876923-15.753846 15.753846-15.753846 23.63077-15.753846 15.753846 0 23.630769 0 31.507692 7.876923l338.707692 338.707693c7.876923 7.876923 7.876923 15.753846 7.876923 31.507692 0 23.630769-15.753846 39.384615-39.384615 39.384615h-157.538462V738.461538c0 23.630769-15.753846 39.384615-39.384615 39.384616H401.723077c-23.630769 0-39.384615-15.753846-39.384615-39.384616v-212.676923H173.292308zM913.723077-96.492308H102.4c-23.630769 0-39.384615 15.753846-39.384615 39.384616s15.753846 39.384615 39.384615 39.384615h811.323077c23.630769 0 39.384615-15.753846 39.384615-39.384615s-23.630769-39.384615-39.384615-39.384616z"  horiz-adv-x="1024" />

    
    <glyph glyph-name="zhiding1" unicode="&#59205;" d="M622.276923-88.615385H401.723077c-70.892308 0-118.153846 55.138462-118.153846 118.153847V163.446154H173.292308c-31.507692 0-55.138462 7.876923-78.769231 31.507692-47.261538 39.384615-47.261538 118.153846-7.876923 165.415385L393.846154 699.076923c23.630769 23.630769 55.138462 39.384615 86.646154 39.384615 31.507692 0 63.015385-15.753846 86.646154-31.507692l338.707692-338.707692c23.630769-23.630769 31.507692-55.138462 31.507692-86.646154 0-63.015385-55.138462-118.153846-118.153846-118.153846h-78.769231V29.538462c0-63.015385-47.261538-118.153846-118.153846-118.153847zM480.492308 659.692308c-7.876923 0-15.753846 0-23.63077-7.876923L149.661538 305.230769c-7.876923-7.876923-15.753846-15.753846-15.753846-23.630769 0-7.876923 7.876923-23.630769 15.753846-23.630769 7.876923-15.753846 15.753846-15.753846 23.63077-15.753846h181.16923V29.538462c0-23.630769 15.753846-39.384615 39.384616-39.384616h228.430769c23.630769 0 39.384615 15.753846 39.384615 39.384616V242.215385h157.538462c23.630769 0 39.384615 15.753846 39.384615 39.384615 0 7.876923-7.876923 23.630769-7.876923 31.507692L512 651.815385c-7.876923 7.876923-15.753846 15.753846-31.507692 7.876923zM913.723077 785.723077H102.4C78.769231 785.723077 63.015385 801.476923 63.015385 825.107692s15.753846 39.384615 39.384615 39.384616h811.323077c23.630769 0 39.384615-15.753846 39.384615-39.384616s-23.630769-39.384615-39.384615-39.384615z"  horiz-adv-x="1024" />

    
    <glyph glyph-name="xinjianjianliwodejianli" unicode="&#59204;" d="M698.181818-104.727273H139.636364c-79.127273 0-139.636364 60.509091-139.636364 139.636364V756.363636c0 79.127273 60.509091 139.636364 139.636364 139.636364h712.145454c79.127273 0 139.636364-60.509091 139.636364-139.636364v-595.781818L698.181818-104.727273zM139.636364 802.909091c-27.927273 0-46.545455-18.618182-46.545455-46.545455v-721.454545c0-27.927273 18.618182-46.545455 46.545455-46.545455h521.309091l237.381818 214.109091V756.363636c0 27.927273-18.618182 46.545455-46.545455 46.545455H139.636364zM735.418182-11.636364h-69.818182v181.527273c0 46.545455 37.236364 83.781818 83.781818 83.781818h153.6v-69.818182H744.727273c-4.654545 0-9.309091-4.654545-9.309091-9.30909v-186.181819zM451.490909 160.581818H279.272727c-18.618182 0-37.236364 13.963636-37.236363 37.236364s13.963636 37.236364 37.236363 37.236363h172.218182c18.618182 0 37.236364-13.963636 37.236364-37.236363s-13.963636-37.236364-37.236364-37.236364zM730.763636 356.072727H279.272727c-18.618182 0-37.236364 13.963636-37.236363 37.236364s18.618182 32.581818 37.236363 32.581818h451.490909c18.618182 0 37.236364-13.963636 37.236364-37.236364s-13.963636-32.581818-37.236364-32.581818zM730.763636 551.563636H279.272727c-18.618182 0-37.236364 13.963636-37.236363 37.236364s18.618182 32.581818 37.236363 32.581818h451.490909c18.618182 0 37.236364-13.963636 37.236364-37.236363s-13.963636-32.581818-37.236364-32.581819z"  horiz-adv-x="1024" />

    
    <glyph glyph-name="huifu" unicode="&#59203;" d="M512-96H166.4c-44.8 6.4-70.4 51.2-64 96 19.2 96 12.8 121.6 12.8 121.6-12.8 25.6-32 51.2-44.8 83.2C44.8 256 32 320 32 384 32 646.4 249.6 864 512 864s480-217.6 480-480-217.6-480-480-480z m0 896C281.6 800 96 614.4 96 384c0-57.6 12.8-108.8 32-160 12.8-25.6 25.6-51.2 38.4-70.4 12.8-19.2 19.2-51.2-6.4-166.4 0-6.4 6.4-19.2 12.8-19.2H512c230.4 0 416 185.6 416 416S742.4 800 512 800zM288 384m-76.8 0a76.8 76.8 0 1 1 153.6 0 76.8 76.8 0 1 1-153.6 0ZM512 384m-76.8 0a76.8 76.8 0 1 1 153.6 0 76.8 76.8 0 1 1-153.6 0ZM736 384m-76.8 0a76.8 76.8 0 1 1 153.6 0 76.8 76.8 0 1 1-153.6 0Z"  horiz-adv-x="1024" />

    
    <glyph glyph-name="tupian" unicode="&#59202;" d="M1185.684211-128H215.578947c-118.568421 0-215.578947 97.010526-215.578947 215.578947V680.421053c0 118.568421 97.010526 215.578947 215.578947 215.578947h970.105264c118.568421 0 215.578947-97.010526 215.578947-215.578947v-592.842106c0-118.568421-97.010526-215.578947-215.578947-215.578947zM215.578947 788.210526c-59.284211 0-107.789474-48.505263-107.789473-107.789473v-592.842106c0-59.284211 48.505263-107.789474 107.789473-107.789473h970.105264c59.284211 0 107.789474 48.505263 107.789473 107.789473V680.421053c0 59.284211-48.505263 107.789474-107.789473 107.789473H215.578947zM0 179.2l247.915789 145.515789c64.673684 37.726316 145.515789 37.726316 210.189474 5.389474l274.863158-145.515789 258.694737 274.863158c43.115789 43.115789 102.4 59.284211 161.68421 43.115789L1401.263158 427.115789V33.684211c0-91.621053-70.063158-161.684211-161.684211-161.684211H161.684211c-91.621053 0-161.684211 70.063158-161.684211 161.684211M210.189474 578.021053a107.789474 107.789474 0 1 1 215.578947 0 107.789474 107.789474 0 1 1-215.578947 0Z"  horiz-adv-x="1401" />

    
    <glyph glyph-name="wentiliebiao" unicode="&#59201;" d="M512 384m-512 0a512 512 0 1 1 1024 0 512 512 0 1 1-1024 0ZM512 175.261538c-55.138462 0-98.461538 19.692308-129.969231 55.138462-31.507692 35.446154-51.2 82.707692-51.2 141.784615 0 63.015385 15.753846 110.276923 51.2 149.661539 35.446154 35.446154 78.769231 55.138462 137.846154 55.138461 51.2 0 94.523077-19.692308 129.969231-55.138461s47.261538-82.707692 47.261538-141.784616c0-63.015385-15.753846-114.215385-51.2-149.661538l-23.630769-23.630769 110.276923-78.769231h-82.707692l-70.892308 55.138462c-23.630769-3.938462-43.323077-7.876923-66.953846-7.876924z m3.938462 358.4c-39.384615 0-74.830769-15.753846-98.461539-43.323076s-39.384615-66.953846-39.384615-114.215385 11.815385-86.646154 35.446154-114.215385c23.630769-27.569231 55.138462-43.323077 98.461538-43.323077s74.830769 15.753846 98.461538 43.323077c23.630769 27.569231 35.446154 66.953846 35.446154 114.215385 0 51.2-11.815385 90.584615-35.446154 118.153846-19.692308 23.630769-51.2 39.384615-94.523076 39.384615z"  horiz-adv-x="1024" />

    
    <glyph glyph-name="zhicheng" unicode="&#59199;" d="M1331.2-128h-1160.533333C75.093333-128 0-52.906667 0 42.666667v682.666666C0 820.906667 75.093333 896 170.666667 896h1160.533333C1426.773333 896 1501.866667 820.906667 1501.866667 725.333333v-682.666666c0-95.573333-75.093333-170.666667-170.666667-170.666667zM170.666667 827.733333C116.053333 827.733333 68.266667 779.946667 68.266667 725.333333v-682.666666c0-54.613333 47.786667-102.4 102.4-102.4h1160.533333c54.613333 0 102.4 47.786667 102.4 102.4v682.666666c0 54.613333-47.786667 102.4-102.4 102.4h-1160.533333zM750.933333 56.32c-20.48 0-34.133333 13.653333-34.133333 34.133333 0 129.706667-109.226667 238.933333-238.933333 238.933334s-238.933333-109.226667-238.933334-238.933334c0-20.48-13.653333-34.133333-34.133333-34.133333s-34.133333 13.653333-34.133333 34.133333c0 170.666667 136.533333 307.2 307.2 307.2s307.2-136.533333 307.2-307.2c0-20.48-13.653333-34.133333-34.133334-34.133333zM477.866667 363.52c-88.746667 0-163.84 75.093333-163.84 163.84S389.12 691.2 477.866667 691.2s163.84-75.093333 163.84-163.84S566.613333 363.52 477.866667 363.52zM477.866667 622.933333c-54.613333 0-95.573333-40.96-95.573334-95.573333S423.253333 431.786667 477.866667 431.786667s95.573333 40.96 95.573333 95.573333S532.48 622.933333 477.866667 622.933333zM1262.933333 76.8h-341.333333c-20.48 0-34.133333 13.653333-34.133333 34.133333s13.653333 34.133333 34.133333 34.133334h341.333333c20.48 0 34.133333-13.653333 34.133334-34.133334s-13.653333-34.133333-34.133334-34.133333zM1194.666667 315.733333h-273.066667c-20.48 0-34.133333 13.653333-34.133333 34.133334s13.653333 34.133333 34.133333 34.133333h273.066667c20.48 0 34.133333-13.653333 34.133333-34.133333s-13.653333-34.133333-34.133333-34.133334zM1058.133333 520.533333h-136.533333c-20.48 0-34.133333 13.653333-34.133333 34.133334s13.653333 34.133333 34.133333 34.133333h136.533333c20.48 0 34.133333-13.653333 34.133334-34.133333s-13.653333-34.133333-34.133334-34.133334z"  horiz-adv-x="1501" />

    
    <glyph glyph-name="upload" unicode="&#59243;" d="M704 554.666667h64a64 64 0 0 0 64-64v-362.666667a64 64 0 0 0-64-64H256a64 64 0 0 0-64 64V490.666667a64 64 0 0 0 64 64h64v-64h-64v-362.666667h512V490.666667h-64v64zM517.653333 771.370667l150.826667-150.826667-45.226667-45.269333-74.026666 74.005333v-304.768h-64V648.384l-73.173334-73.130667-45.248 45.248 150.826667 150.848z"  horiz-adv-x="1024" />

    
    <glyph glyph-name="fabuzhiwei" unicode="&#59198;" d="M851.781818-118.690909H139.636364c-79.127273 0-139.636364 60.509091-139.636364 139.636364V751.709091c0 79.127273 60.509091 139.636364 139.636364 139.636364h470.109091c27.927273 0 46.545455-18.618182 46.545454-46.545455s-18.618182-46.545455-46.545454-46.545455H139.636364c-27.927273 0-46.545455-18.618182-46.545455-46.545454v-730.763636c0-27.927273 18.618182-46.545455 46.545455-46.545455h712.145454c27.927273 0 46.545455 18.618182 46.545455 46.545455V528.290909c0 27.927273 18.618182 46.545455 46.545454 46.545455s46.545455-18.618182 46.545455-46.545455v-507.345454c0-74.472727-60.509091-139.636364-139.636364-139.636364zM721.454545 109.381818H269.963636c-18.618182 0-37.236364 13.963636-37.236363 37.236364s13.963636 37.236364 37.236363 37.236363h451.490909c18.618182 0 37.236364-13.963636 37.236364-37.236363s-13.963636-37.236364-37.236364-37.236364zM721.454545 342.109091H269.963636c-18.618182 0-37.236364 13.963636-37.236363 37.236364s13.963636 37.236364 37.236363 37.236363h451.490909c18.618182 0 37.236364-13.963636 37.236364-37.236363s-13.963636-37.236364-37.236364-37.236364zM442.181818 560.872727H269.963636c-18.618182 0-37.236364 13.963636-37.236363 32.581818s13.963636 37.236364 37.236363 37.236364h172.218182c18.618182 0 37.236364-13.963636 37.236364-37.236364s-13.963636-32.581818-37.236364-32.581818zM656.290909 528.290909c-13.963636 0-23.272727 4.654545-32.581818 13.963636-18.618182 18.618182-18.618182 46.545455 0 65.163637L893.672727 863.418182c18.618182 18.618182 46.545455 18.618182 65.163637 0 18.618182-18.618182 18.618182-46.545455 0-65.163637l-269.963637-256c-9.309091-9.309091-18.618182-13.963636-32.581818-13.963636z"  horiz-adv-x="1024" />

    
    <glyph glyph-name="zhiweiyaoqiu" unicode="&#59197;" d="M823.652174-128H200.347826c-75.686957 0-133.565217 57.878261-133.565217 133.565217V628.869565c0 75.686957 57.878261 133.565217 133.565217 133.565218h623.304348c75.686957 0 133.565217-57.878261 133.565217-133.565218v-623.304348c0-75.686957-57.878261-133.565217-133.565217-133.565217zM200.347826 673.391304c-26.713043 0-44.521739-17.808696-44.521739-44.521739v-623.304348c0-26.713043 17.808696-44.521739 44.521739-44.521739h623.304348c26.713043 0 44.521739 17.808696 44.521739 44.521739V628.869565c0 26.713043-17.808696 44.521739-44.521739 44.521739H200.347826zM311.652174 642.226087c-26.713043 0-44.521739 17.808696-44.521739 44.521739V838.121739c0 26.713043 17.808696 44.521739 44.521739 44.521739s44.521739-17.808696 44.521739-44.521739v-146.921739c0-26.713043-17.808696-48.973913-44.521739-48.973913zM756.869565 642.226087c-26.713043 0-44.521739 17.808696-44.521739 44.521739V838.121739c0 26.713043 17.808696 44.521739 44.521739 44.521739s44.521739-17.808696 44.521739-44.521739v-146.921739c0-26.713043-17.808696-48.973913-44.521739-48.973913zM721.252174 486.4H302.747826c-17.808696 0-35.617391 13.356522-35.617391 35.617391s13.356522 35.617391 35.617391 35.617392h414.052174c17.808696 0 35.617391-13.356522 35.617391-35.617392s-13.356522-35.617391-31.165217-35.617391zM721.252174 263.791304H302.747826c-17.808696 0-35.617391 13.356522-35.617391 35.617392s13.356522 35.617391 35.617391 35.617391h414.052174c17.808696 0 35.617391-13.356522 35.617391-35.617391s-13.356522-35.617391-31.165217-35.617392zM645.565217 58.991304H302.747826c-17.808696 0-35.617391 13.356522-35.617391 35.617392s13.356522 35.617391 35.617391 35.617391H645.565217c17.808696 0 35.617391-13.356522 35.617392-35.617391s-17.808696-35.617391-35.617392-35.617392z"  horiz-adv-x="1024" />

    
    <glyph glyph-name="gongsijieshao" unicode="&#59196;" d="M487.619048 569.295238H414.47619c-39.009524 0-68.266667 34.133333-68.266666 73.142857s29.257143 68.266667 68.266666 68.266667H487.619048c39.009524 0 68.266667-29.257143 68.266666-68.266667s-29.257143-73.142857-68.266666-73.142857zM414.47619 661.942857c-9.752381 0-19.504762-9.752381-19.504761-19.504762s9.752381-19.504762 19.504761-19.504762H487.619048c9.752381 0 19.504762 9.752381 19.504762 19.504762s-9.752381 19.504762-19.504762 19.504762H414.47619zM487.619048 340.114286H414.47619c-39.009524 0-68.266667 29.257143-68.266666 68.266666s29.257143 68.266667 68.266666 68.266667H487.619048c39.009524 0 68.266667-29.257143 68.266666-68.266667s-29.257143-68.266667-68.266666-68.266666zM414.47619 427.885714c-9.752381 0-19.504762-9.752381-19.504761-19.504762s9.752381-19.504762 19.504761-19.504762H487.619048c9.752381 0 19.504762 9.752381 19.504762 19.504762s-9.752381 19.504762-19.504762 19.504762H414.47619zM487.619048 106.057143H414.47619c-39.009524 0-68.266667 29.257143-68.266666 68.266667s29.257143 68.266667 68.266666 68.266666H487.619048c39.009524 0 68.266667-29.257143 68.266666-68.266666s-29.257143-68.266667-68.266666-68.266667z m-73.142858 92.647619c-9.752381 0-19.504762-9.752381-19.504761-19.504762s9.752381-19.504762 19.504761-19.504762H487.619048c9.752381 0 19.504762 9.752381 19.504762 19.504762s-9.752381 19.504762-19.504762 19.504762H414.47619zM809.447619-79.238095h-633.904762V798.47619c0 53.638095 43.885714 97.52381 97.52381 97.52381h438.857143c53.638095 0 97.52381-43.885714 97.523809-97.52381v-877.714285z m-536.380952 97.523809h438.857143V798.47619h-438.857143v-780.190476zM1189.790476-79.238095h-463.238095V427.885714c0 53.638095 43.885714 97.52381 97.523809 97.52381h268.190477c53.638095 0 97.52381-43.885714 97.523809-97.52381V-79.238095z m-365.714286 97.523809h268.190477V427.885714h-268.190477V18.285714zM1297.066667-103.619048H68.266667c-29.257143 0-48.761905 19.504762-48.761905 48.761905s19.504762 48.761905 48.761905 48.761905h1223.923809c29.257143 0 48.761905-19.504762 48.761905-48.761905s-19.504762-48.761905-43.885714-48.761905z"  horiz-adv-x="1365" />

    
    <glyph glyph-name="gongsidizhi" unicode="&#59195;" d="M1015.466667-128H93.866667c-46.933333 0-85.333333 38.4-85.333334 85.333333v17.066667l59.733334 307.2c8.533333 38.4 42.666667 68.266667 85.333333 68.266667h85.333333v-85.333334h-85.333333L93.866667-42.666667h921.6l-59.733334 307.2h-89.6v85.333334h89.6c42.666667 0 76.8-29.866667 85.333334-68.266667l59.733333-307.2c4.266667-21.333333 0-46.933333-12.8-64-12.8-17.066667-34.133333-29.866667-55.466667-34.133333-8.533333-4.266667-12.8-4.266667-17.066666-4.266667zM554.666667 76.8l-29.866667 34.133333c-149.333333 153.6-243.2 264.533333-281.6 324.266667-34.133333 42.666667-46.933333 98.133333-46.933333 149.333333C196.266667 755.2 354.133333 896 554.666667 896s358.4-140.8 358.4-311.466667c0-55.466667-17.066667-110.933333-46.933334-157.866666-38.4-55.466667-132.266667-166.4-281.6-320l-29.866666-29.866667zM554.666667 810.666667C401.066667 810.666667 281.6 708.266667 281.6 584.533333c0-38.4 12.8-72.533333 34.133333-106.666666s85.333333-110.933333 243.2-277.333334c157.866667 166.4 217.6 238.933333 238.933334 273.066667 21.333333 34.133333 34.133333 68.266667 34.133333 106.666667-4.266667 128-123.733333 230.4-277.333333 230.4zM550.4 409.6c-72.533333 0-128 55.466667-128 128s55.466667 128 128 128 128-55.466667 128-128-59.733333-128-128-128z m0 213.333333c-46.933333 0-85.333333-38.4-85.333333-85.333333s38.4-85.333333 85.333333-85.333333 85.333333 38.4 85.333333 85.333333-38.4 85.333333-85.333333 85.333333z"  horiz-adv-x="1109" />

    
    <glyph glyph-name="jubushuaxinjiantou" unicode="&#59194;" d="M783.090347-128a35.498667 35.498667 0 0 0-22.528 8.192l-546.133334 477.866667a32.768 32.768 0 0 0-8.874666 22.528 34.133333 34.133333 0 0 0 11.605333 25.941333l546.133333 477.866667a32.768 32.768 0 0 0 47.786667 0 34.133333 34.133333 0 0 0 0-48.469334L288.83968 384l516.778667-449.194667a34.816 34.816 0 0 0 3.413333-48.469333 35.498667 35.498667 0 0 0-25.941333-14.336z"  horiz-adv-x="1024" />

    
    <glyph glyph-name="fanhui" unicode="&#59193;" d="M590.769231-107.362462H315.076923c-31.507692 0-63.015385 23.630769-63.015385 63.015385s23.630769 63.015385 63.015385 63.015385h275.692308c259.938462 0 378.092308 7.876923 378.092307 252.061538s-118.153846 252.061538-378.092307 252.061539H315.076923c-31.507692 0-63.015385 23.630769-63.015385 63.015384s31.507692 55.138462 63.015385 55.138462h275.692308c228.430769 0 496.246154 0 496.246154-378.092308s-267.815385-370.215385-496.246154-370.215385zM47.261538 514.914462l259.938462-196.923077c39.384615-23.630769 86.646154-15.753846 110.276923 15.753846 7.876923 15.753846 15.753846 31.507692 15.753846 47.261538v393.846154c0 47.261538-31.507692 78.769231-78.769231 78.769231-15.753846 0-31.507692-7.876923-47.261538-15.753846l-259.938462-196.923077c-39.384615-31.507692-47.261538-78.769231-15.753846-110.276923 0-7.876923 7.876923-15.753846 15.753846-15.753846z"  horiz-adv-x="1102" />

    
    <glyph glyph-name="tongji1" unicode="&#59192;" d="M702.171429 52.419048c-78.019048 0-141.409524 63.390476-141.409524 141.409523V754.590476c0 78.019048 63.390476 141.409524 141.409524 141.409524 78.019048 0 141.409524-63.390476 141.409523-141.409524v-565.638095c-4.87619-73.142857-68.266667-136.533333-141.409523-136.533333z m0 746.057142c-24.380952 0-43.885714-19.504762-43.885715-43.885714v-565.638095c0-24.380952 19.504762-43.885714 43.885715-43.885714s43.885714 19.504762 43.885714 43.885714V754.590476c-4.87619 24.380952-24.380952 43.885714-43.885714 43.885714zM1067.885714 52.419048c-78.019048 0-141.409524 63.390476-141.409524 141.409523V447.390476c0 78.019048 63.390476 141.409524 141.409524 141.409524s141.409524-63.390476 141.409524-141.409524v-253.561905c0-78.019048-63.390476-141.409524-141.409524-141.409523z m0 433.980952c-24.380952 0-43.885714-19.504762-43.885714-43.885714v-253.561905c0-24.380952 19.504762-43.885714 43.885714-43.885714s43.885714 19.504762 43.885715 43.885714V447.390476c0 19.504762-19.504762 39.009524-43.885715 39.009524zM331.580952 52.419048C253.561905 52.419048 195.047619 115.809524 195.047619 193.828571V447.390476c0 78.019048 63.390476 141.409524 141.409524 141.409524 78.019048 0 141.409524-63.390476 141.409524-141.409524v-253.561905c-4.87619-78.019048-68.266667-141.409524-146.285715-141.409523z m0 433.980952c-19.504762 0-39.009524-19.504762-39.009523-39.009524v-253.561905c0-24.380952 19.504762-43.885714 43.885714-43.885714s43.885714 19.504762 43.885714 43.885714V447.390476c-4.87619 19.504762-24.380952 39.009524-48.761905 39.009524zM1297.066667-108.495238H48.761905c-29.257143 0-48.761905 19.504762-48.761905 48.761905v536.380952c0 29.257143 19.504762 48.761905 48.761905 48.761905s48.761905-19.504762 48.761905-48.761905v-487.619048h1199.542857c29.257143 0 48.761905-19.504762 48.761904-48.761904s-24.380952-48.761905-48.761904-48.761905z"  horiz-adv-x="1365" />

    
    <glyph glyph-name="qiandao-1" unicode="&#59190;" d="M881.509434-128h-724.528302a157.584906 157.584906 0 0 0-156.981132 156.981132v603.773585a157.584906 157.584906 0 0 0 156.981132 156.981132h724.528302a157.584906 157.584906 0 0 0 156.981132-156.981132v-603.773585a157.584906 157.584906 0 0 0-156.981132-156.981132z m-724.528302 845.283019a84.528302 84.528302 0 0 1-84.528302-84.528302v-603.773585a84.528302 84.528302 0 0 1 84.528302-84.528302h724.528302a84.528302 84.528302 0 0 1 84.528302 84.528302v603.773585a84.528302 84.528302 0 0 1-84.528302 84.528302zM277.735849 859.773585v-241.509434M277.735849 582.037736a36.226415 36.226415 0 0 0-36.226415 36.226415v241.509434a36.226415 36.226415 0 1 0 72.45283 0v-241.509434a36.226415 36.226415 0 0 0-36.226415-36.226415zM760.754717 859.773585v-241.509434M760.754717 582.037736a36.226415 36.226415 0 0 0-36.226415 36.226415v241.509434a36.226415 36.226415 0 0 0 72.45283 0v-241.509434a36.226415 36.226415 0 0 0-36.226415-36.226415zM486.641509 149.735849a37.433962 37.433962 0 0 0-27.773584 10.867925l-175.09434 181.132075a36.226415 36.226415 0 0 0 0 51.320755 36.830189 36.830189 0 0 0 51.320755 0l152.754717-158.792453 281.962264 221.584906a36.226415 36.226415 0 0 0 50.716981-6.037736 36.830189 36.830189 0 0 0-6.037736-51.320755l-307.320755-241.509434a38.037736 38.037736 0 0 0-20.528302-7.245283z"  horiz-adv-x="1038" />

    
    <glyph glyph-name="xiajiantou2" unicode="&#59191;" d="M796.390468-127.928326a113.768929 113.768929 0 0 0-86.464386 39.819126l-682.613575 796.382503A113.768929 113.768929 0 1 0 200.24128 856.172911L796.390468 156.493997 1392.539656 851.622154a113.768929 113.768929 0 0 0 172.928773-147.899608l-682.613575-796.382504A113.768929 113.768929 0 0 0 796.390468-127.928326z"  horiz-adv-x="1592" />

    
    <glyph glyph-name="qiandao-" unicode="&#59189;" d="M881.509434-128h-724.528302a157.584906 157.584906 0 0 0-156.981132 156.981132v603.773585a157.584906 157.584906 0 0 0 156.981132 156.981132h724.528302a157.584906 157.584906 0 0 0 156.981132-156.981132v-603.773585a157.584906 157.584906 0 0 0-156.981132-156.981132z m-724.528302 845.283019a84.528302 84.528302 0 0 1-84.528302-84.528302v-603.773585a84.528302 84.528302 0 0 1 84.528302-84.528302h724.528302a84.528302 84.528302 0 0 1 84.528302 84.528302v603.773585a84.528302 84.528302 0 0 1-84.528302 84.528302zM277.735849 859.773585v-241.509434M277.735849 582.037736a36.226415 36.226415 0 0 0-36.226415 36.226415v241.509434a36.226415 36.226415 0 1 0 72.45283 0v-241.509434a36.226415 36.226415 0 0 0-36.226415-36.226415zM760.754717 859.773585v-241.509434M760.754717 582.037736a36.226415 36.226415 0 0 0-36.226415 36.226415v241.509434a36.226415 36.226415 0 0 0 72.45283 0v-241.509434a36.226415 36.226415 0 0 0-36.226415-36.226415zM486.641509 149.73584900000003a37.433962 37.433962 0 0 0-27.773584 10.867925l-175.09434 181.132075a36.226415 36.226415 0 0 0 0 51.320755 36.830189 36.830189 0 0 0 51.320755 0l152.754717-158.792453 281.962264 221.584906a36.226415 36.226415 0 0 0 50.716981-6.037736 36.830189 36.830189 0 0 0-6.037736-51.320755l-307.320755-241.509434a38.037736 38.037736 0 0 0-20.528302-7.245283z"  horiz-adv-x="1038" />

    
    <glyph glyph-name="yidong" unicode="&#59188;" d="M855.341176-121.976471H174.682353c-90.352941 0-156.611765 72.282353-156.611765 156.611765V721.317647C18.070588 811.670588 90.352941 877.929412 174.682353 877.929412h680.658823c90.352941 0 156.611765-72.282353 156.611765-156.611765v-78.305882h-90.352941V721.317647c0 36.141176-30.117647 66.258824-66.258824 66.258824H174.682353c-36.141176 0-66.258824-30.117647-66.258824-66.258824v-680.658823c0-36.141176 30.117647-66.258824 66.258824-66.258824h680.658823c36.141176 0 66.258824 30.117647 66.258824 66.258824v78.305882h90.352941v-78.305882c6.023529-90.352941-66.258824-162.635294-156.611765-162.635295zM951.717647 299.670588H271.058824c-24.094118 0-48.188235 18.070588-48.188236 48.188236s18.070588 48.188235 48.188236 48.188235h680.658823c24.094118 0 48.188235-18.070588 48.188235-48.188235s-24.094118-48.188235-48.188235-48.188236zM1084.235294 347.858824L921.6 173.176471V534.588235L1084.235294 359.905882v-12.047058z"  horiz-adv-x="1084" />

    
    <glyph glyph-name="xiayi1" unicode="&#59186;" d="M512 384m-481.882353 0a481.882353 481.882353 0 1 1 963.764706 0 481.882353 481.882353 0 1 1-963.764706 0ZM512-128C228.894118-128 0 100.894118 0 384S228.894118 896 512 896 1024 667.105882 1024 384 795.105882-128 512-128z m0 963.764706C265.035294 835.764706 60.235294 630.964706 60.235294 384S265.035294-67.764706 512-67.764706 963.764706 137.035294 963.764706 384 758.964706 835.764706 512 835.764706zM502.964706 143.058824c-18.070588 0-30.117647 12.047059-30.117647 30.117647V588.8c0 18.070588 12.047059 30.117647 30.117647 30.117647s30.117647-12.047059 30.117647-30.117647V173.176471c0-18.070588-12.047059-30.117647-30.117647-30.117647zM502.964706 88.847059c-6.023529 0-12.047059 0-18.070588 6.023529l-144.564706 132.517647c-12.047059 12.047059-12.047059 30.117647 0 42.164706 12.047059 12.047059 30.117647 12.047059 42.164706 0l126.494117-108.423529 132.517647 108.423529c12.047059 12.047059 30.117647 12.047059 42.164706-6.023529 6.023529-6.023529 6.023529-30.117647-12.047059-36.141177l-150.588235-132.517647c-6.023529 0-12.047059-6.023529-18.070588-6.023529z"  horiz-adv-x="1024" />

    
    <glyph glyph-name="shangyi1" unicode="&#59185;" d="M512 384m-481.882353 0a481.882353 481.882353 0 1 1 963.764706 0 481.882353 481.882353 0 1 1-963.764706 0ZM512-128C228.894118-128 0 100.894118 0 384S228.894118 896 512 896 1024 667.105882 1024 384 795.105882-128 512-128z m0 963.764706C265.035294 835.764706 60.235294 630.964706 60.235294 384S265.035294-67.764706 512-67.764706 963.764706 137.035294 963.764706 384 758.964706 835.764706 512 835.764706zM502.964706 106.917647c-18.070588 0-30.117647 12.047059-30.117647 30.117647V552.658824c0 18.070588 12.047059 30.117647 30.117647 30.117647s30.117647-12.047059 30.117647-30.117647v-415.62353c0-18.070588-12.047059-30.117647-30.117647-30.117647zM653.552941 444.235294c-6.023529 0-12.047059 0-18.070588 6.02353l-132.517647 114.447058-126.494118-108.423529c-12.047059-12.047059-30.117647-12.047059-42.164706 0-12.047059 12.047059-12.047059 30.117647 0 42.164706l144.564706 126.494117c12.047059 12.047059 30.117647 12.047059 42.164706 0l150.588235-126.494117c12.047059-12.047059 12.047059-30.117647 6.02353-42.164706-6.023529-6.023529-12.047059-12.047059-24.094118-12.047059z"  horiz-adv-x="1024" />

    
    <glyph glyph-name="xiayi" unicode="&#59184;" d="M512 384m-481.882353 0a481.882353 481.882353 0 1 1 963.764706 0 481.882353 481.882353 0 1 1-963.764706 0ZM512-128C228.894118-128 0 100.894118 0 384S228.894118 896 512 896 1024 667.105882 1024 384 795.105882-128 512-128z m0 963.764706C265.035294 835.764706 60.235294 630.964706 60.235294 384S265.035294-67.764706 512-67.764706 963.764706 137.035294 963.764706 384 758.964706 835.764706 512 835.764706zM502.964706 143.058824c-18.070588 0-30.117647 12.047059-30.117647 30.117647V588.8c0 18.070588 12.047059 30.117647 30.117647 30.117647s30.117647-12.047059 30.117647-30.117647V173.176471c0-18.070588-12.047059-30.117647-30.117647-30.117647zM502.964706 88.847059c-6.023529 0-12.047059 0-18.070588 6.023529l-144.564706 132.517647c-12.047059 12.047059-12.047059 30.117647 0 42.164706 12.047059 12.047059 30.117647 12.047059 42.164706 0l126.494117-108.423529 132.517647 108.423529c12.047059 12.047059 30.117647 12.047059 42.164706-6.023529 6.023529-6.023529 6.023529-30.117647-12.047059-36.141177l-150.588235-132.517647c-6.023529 0-12.047059-6.023529-18.070588-6.023529z"  horiz-adv-x="1024" />

    
    <glyph glyph-name="shangyi" unicode="&#59183;" d="M512 384m-481.882353 0a481.882353 481.882353 0 1 1 963.764706 0 481.882353 481.882353 0 1 1-963.764706 0ZM512-128C228.894118-128 0 100.894118 0 384S228.894118 896 512 896 1024 667.105882 1024 384 795.105882-128 512-128z m0 963.764706C265.035294 835.764706 60.235294 630.964706 60.235294 384S265.035294-67.764706 512-67.764706 963.764706 137.035294 963.764706 384 758.964706 835.764706 512 835.764706zM502.964706 106.917647c-18.070588 0-30.117647 12.047059-30.117647 30.117647V552.658824c0 18.070588 12.047059 30.117647 30.117647 30.117647s30.117647-12.047059 30.117647-30.117647v-415.62353c0-18.070588-12.047059-30.117647-30.117647-30.117647zM653.552941 444.235294c-6.023529 0-12.047059 0-18.070588 6.02353l-132.517647 114.447058-126.494118-108.423529c-12.047059-12.047059-30.117647-12.047059-42.164706 0-12.047059 12.047059-12.047059 30.117647 0 42.164706l144.564706 126.494117c12.047059 12.047059 30.117647 12.047059 42.164706 0l150.588235-126.494117c12.047059-12.047059 12.047059-30.117647 6.02353-42.164706-6.023529-6.023529-12.047059-12.047059-24.094118-12.047059z"  horiz-adv-x="1024" />

    
    <glyph glyph-name="bianji5" unicode="&#59182;" d="M704.752941-97.882353H198.776471c-78.305882 0-138.541176 60.235294-138.541177 132.517647V667.105882c0 72.282353 66.258824 132.517647 138.541177 132.517647h319.247058c18.070588 0 30.117647-12.047059 30.117647-30.117647s-12.047059-24.094118-30.117647-24.094117H198.776471c-42.164706 0-78.305882-36.141176-78.305883-72.282353v-632.470588c0-42.164706 36.141176-72.282353 78.305883-72.282353h499.952941c42.164706 0 78.305882 36.141176 78.305882 72.282353V293.647059c0 18.070588 12.047059 30.117647 30.117647 30.117647s30.117647-12.047059 30.117647-30.117647v-259.011765c6.023529-72.282353-60.235294-132.517647-132.517647-132.517647zM313.223529 161.129412c-24.094118 0-54.211765 18.070588-60.235294 48.188235v30.117647l36.141177 126.494118 445.741176 445.741176c48.188235 48.188235 120.470588 48.188235 168.658824 0 48.188235-48.188235 48.188235-120.470588 0-168.658823l-445.741177-445.741177-126.494117-30.117647c-6.023529-6.023529-12.047059-6.023529-18.070589-6.023529z m36.141177 174.682353l-36.141177-114.447059 120.470589 30.117647 433.694117 433.694118c12.047059 12.047059 18.070588 24.094118 18.070589 42.164705 0 18.070588-6.023529 30.117647-18.070589 42.164706-24.094118 24.094118-60.235294 24.094118-84.329411 0L349.364706 335.811765z"  horiz-adv-x="1024" />

    
    <glyph glyph-name="shanchu3" unicode="&#59181;" d="M654.222222-99.555556H375.466667c-68.266667 0-125.155556 56.888889-136.533334 142.222223L142.222222 571.733333c0 17.066667 5.688889 28.444444 22.755556 34.133334 17.066667 0 28.444444-5.688889 34.133333-22.755556l91.022222-534.755555c11.377778-51.2 45.511111-91.022222 85.333334-91.022223h278.755555c39.822222 0 73.955556 39.822222 85.333334 91.022223l91.022222 534.755555c0 17.066667 17.066667 28.444444 34.133333 22.755556 17.066667 0 28.444444-17.066667 22.755556-34.133334L796.444444 42.666667c-17.066667-85.333333-73.955556-142.222222-142.222222-142.222223zM597.333333 708.266667v5.688889c0 51.2-39.822222 96.711111-85.333333 96.711111s-85.333333-45.511111-85.333333-102.4h-56.888889C369.777778 793.6 432.355556 867.555556 512 867.555556c73.955556 0 136.533333-68.266667 142.222222-147.911112v-5.688888l-56.888889-5.688889zM398.222222 36.977778c-11.377778 0-28.444444 11.377778-28.444444 22.755555L284.444444 577.422222c0 17.066667 11.377778 34.133333 22.755556 34.133334 17.066667 5.688889 34.133333-5.688889 34.133333-22.755556l85.333334-517.688889c0-17.066667-5.688889-34.133333-28.444445-34.133333 5.688889 0 0 0 0 0zM625.777778 36.977778s-5.688889 0 0 0c-22.755556 5.688889-28.444444 17.066667-28.444445 34.133333L682.666667 588.8c0 17.066667 17.066667 28.444444 34.133333 22.755556 11.377778 0 22.755556-17.066667 22.755556-34.133334l-85.333334-517.688889c0-11.377778-17.066667-22.755556-28.444444-22.755555zM512 36.977778c-17.066667 0-28.444444 11.377778-28.444444 28.444444V583.111111c0 17.066667 11.377778 28.444444 28.444444 28.444445s28.444444-11.377778 28.444444-28.444445v-517.688889c0-17.066667-11.377778-28.444444-28.444444-28.444444zM938.666667 645.688889H85.333333c-17.066667 0-28.444444 17.066667-28.444444 28.444444s11.377778 28.444444 28.444444 28.444445h853.333334c17.066667 0 28.444444-11.377778 28.444444-28.444445s-11.377778-28.444444-28.444444-28.444444z"  horiz-adv-x="1024" />

    
    <glyph glyph-name="xuanze" unicode="&#59180;" d="M870.4 896H153.6C66.56 896 0 829.44 0 742.4v-716.8c0-87.04 66.56-153.6 153.6-153.6h716.8c87.04 0 153.6 66.56 153.6 153.6V742.4c0 87.04-66.56 153.6-153.6 153.6z m-40.96-394.24l-337.92-358.4c-10.24-10.24-25.6-15.36-40.96-15.36-10.24 0-20.48 5.12-30.72 10.24L174.08 332.8c-20.48 15.36-25.6 51.2-10.24 71.68 15.36 20.48 51.2 25.6 71.68 10.24l209.92-163.84 307.2 327.68c20.48 20.48 51.2 20.48 71.68 0 20.48-20.48 25.6-56.32 5.12-76.8z"  horiz-adv-x="1024" />

    
    <glyph glyph-name="bianji4" unicode="&#59178;" d="M934.724189 617.173271L834.414864 516.863946 653.380212 697.898598l100.394659 100.351991A42.257063 42.257063 0 0 0 783.769535 810.666588c6.527999 0 19.157332-1.621333 29.951997-12.415999l121.002657-121.002656a42.538663 42.538663 0 0 0 0-60.074662zM299.374908-18.176009l-200.661316-19.626665 19.669331 200.661316L593.049551 637.52527 774.084202 456.533285l-474.709294-474.709294z m695.679942 755.79727L874.09486 858.581251A127.317323 127.317323 0 0 1 783.769535 895.999915c-32.725331 0-65.407995-12.458666-90.367993-37.418664l-646.229279-646.229279c-7.082666-7.082666-11.434666-16.469332-12.287999-26.495998l-26.197331-267.818645c-2.133333-25.002665 17.706665-46.037329 42.239996-46.037329 1.194667 0 2.432 0.042667 3.626666 0.128l267.818645 26.239998a42.12053 42.12053 0 0 1 26.495998 12.287999l646.186612 646.186613c49.919996 49.919996 49.919996 130.858656 0 180.778651z"  horiz-adv-x="1032" />

    
    <glyph glyph-name="bangding" unicode="&#59179;" d="M722.7 241.2l-45.2 45.2 140.1 140.1C890 499 890 617 817.6 689.4c-72.5 72.5-190.4 72.5-262.9 0l-140.1-140-45.2 45.2 140.1 140.1c97.4 97.5 256 97.4 353.4 0 97.4-97.4 97.4-256 0-353.4L722.7 241.2zM338.1-39.9c-66.8 0-129.5 26-176.7 73.2-97.4 97.4-97.4 256 0 353.4l140.1 140.1 45.2-45.2-140.1-140.2c-72.5-72.5-72.5-190.4 0-262.9 35.1-35.1 81.8-54.5 131.5-54.5s96.3 19.3 131.4 54.5l140.1 140.1 45.2-45.2-140-140.1c-47.2-47.2-110-73.2-176.7-73.2zM330.99 248.121l316.78 316.781 45.255-45.254-316.781-316.78z"  horiz-adv-x="1024" />

    
    <glyph glyph-name="bofang2" unicode="&#59177;" d="M692.224 400.384l-4.096 4.096L430.08 551.936c-4.096 4.096-8.192 4.096-12.288 4.096-12.288 0-20.48-8.192-20.48-20.48v-303.104c0-12.288 8.192-20.48 20.48-20.48 4.096 0 8.192 0 12.288 4.096L688.128 363.52h4.096c4.096 4.096 8.192 8.192 8.192 16.384s-4.096 16.384-8.192 20.48zM438.272 265.216V502.784L647.168 384 438.272 265.216zM512 797.696C282.624 797.696 98.304 613.376 98.304 384S282.624-29.696 512-29.696c229.376 0 413.696 184.32 413.696 413.696S741.376 797.696 512 797.696z m0-790.528c-208.896 0-376.832 167.936-376.832 376.832S303.104 760.832 512 760.832 888.832 592.896 888.832 384 720.896 7.168 512 7.168z"  horiz-adv-x="1024" />

    
    <glyph glyph-name="weibiaoti1" unicode="&#59176;" d="M671.053824 642.916352c6.05184-3.01056 13.463552-0.52224 16.47616 5.5296l43.646976 87.740416c3.012608 6.05184 0.524288 13.4656-5.527552 16.474112l-112.308224 55.86944c-6.05184 3.01056-13.4656 0.52224-16.47616-5.5296l-43.649024-87.740416c-3.01056-6.05184-0.52224-13.4656 5.527552-16.474112L671.053824 642.916352zM448.755712 176.400384c4.622336 4.931584 10.866688 13.91616 13.877248 19.968l203.35616 408.778752c3.012608 6.05184 0.524288 13.4656-5.527552 16.474112l-112.310272 55.873536c-6.05184 3.01056-13.463552 0.52224-16.47616-5.5296L329.13408 264.822784c-3.01056-6.05184-6.268928-16.474112-7.241728-23.16288l-32.774144-225.294336c-0.9728-6.688768 2.013184-8.126464 6.63552-3.19488L448.755712 176.400384z"  horiz-adv-x="1024" />

    
    <glyph glyph-name="jinggao2" unicode="&#59169;" d="M563.2 499.68C563.2 530.4 542.72 556 512 556S460.8 530.4 460.8 499.68l0-256c0-30.72 20.48-51.2 51.2-51.2s51.2 20.48 51.2 51.2L563.2 499.68zM512 146.4c-30.72 0-51.2-20.48-51.2-51.2 0-30.72 20.48-51.2 51.2-51.2s51.2 20.48 51.2 51.2C563.2 125.92 542.72 146.4 512 146.4z"  horiz-adv-x="1024" />

    
    <glyph glyph-name="lubiaosignpost3" unicode="&#59170;" d="M575.0272 724.10112l0-705.792c0-8.38656-6.79936-15.17568-15.18592-15.17568l-86.016 0c-8.38656 0-15.18592 6.78912-15.18592 15.17568L458.63936 724.10112c0 8.37632 6.79936 15.16544 15.18592 15.16544l86.016 0C568.22784 739.26656 575.0272 732.47744 575.0272 724.10112zM988.68224 490.02496l-74.00448 66.41664c-1.40288 1.23904-3.20512 1.93536-5.07904 1.93536L606.01344 558.37696c-4.18816 0-7.59808-3.38944-7.59808-7.59808l0-118.90688c0-4.18816 3.40992-7.58784 7.59808-7.58784l303.58528 0c1.57696 0 3.11296 0.49152 4.39296 1.39264l74.00448 52.50048c1.88416 1.34144 3.05152 3.46112 3.19488 5.75488C991.31392 486.23616 990.39232 488.46848 988.68224 490.02496zM42.47552 443.0336c0.13312-2.304 1.31072-4.41344 3.19488-5.75488l74.00448-52.50048c1.28-0.90112 2.816-1.40288 4.39296-1.40288l303.59552 0c4.18816 0 7.58784 3.39968 7.58784 7.58784L435.2512 509.89056c0 4.1984-3.39968 7.59808-7.58784 7.59808L124.0576 517.48864c-1.87392 0-3.67616-0.69632-5.0688-1.9456l-74.00448-66.42688C43.27424 447.56992 42.35264 445.3376 42.47552 443.0336zM427.65312 684.89216 124.0576 684.89216c-1.87392 0-3.67616-0.67584-5.0688-1.93536l-74.00448-66.42688c-1.72032-1.52576-2.64192-3.76832-2.5088-6.07232 0.13312-2.31424 1.31072-4.43392 3.19488-5.76512l74.00448-52.49024c1.28-0.91136 2.816-1.41312 4.39296-1.41312l303.59552 0c4.18816 0 7.58784 3.40992 7.58784 7.59808L435.2512 677.30432C435.24096 681.51296 431.84128 684.89216 427.65312 684.89216z"  horiz-adv-x="1024" />

    
    <glyph glyph-name="rili" unicode="&#59222;" d="M177.81122 15.299707c-36.96489 0-67.041906 30.502711-67.041906 67.889203V693.052798L88.478635 670.460244h757.993601c36.769438 0 66.756403-30.462802 66.756403-67.684542V94.369553c0-12.477172 9.980305-22.591531 22.290679-22.59153 12.310374 0 22.290679 10.115382 22.290679 22.59153V602.775702c0 62.152549-49.925063 112.868627-111.337761 112.868627H88.478635c-12.310374 0-22.290679-10.115382-22.290678-22.591531v-609.862865c0-62.333674 50.030463-113.073288 111.62224-113.073288h657.400554c12.310374 0 22.290679 10.114358 22.290679 22.591531s-9.980305 22.591531-22.290679 22.591531H177.81122z m133.573181 587.385944c0-12.477172 9.980305-22.591531 22.290679-22.591531 12.310374 0 22.290679 10.115382 22.290679 22.591531v169.43904c0 12.477172-9.980305 22.591531-22.290679 22.591531-12.310374 0-22.290679-10.115382-22.290679-22.591531v-169.43904z m378.939495 11.295254c0-12.477172 9.980305-22.591531 22.290679-22.591531s22.290679 10.115382 22.290679 22.591531V783.419945c0 12.477172-9.980305 22.591531-22.290679 22.591531s-22.290679-10.115382-22.290679-22.591531v-169.43904zM355.965759 467.134419c12.310374 0 22.290679 10.115382 22.290679 22.591531 0 12.477172-9.980305 22.591531-22.290679 22.591531H233.367537c-12.310374 0-22.290679-10.114358-22.290679-22.591531 0-12.477172 9.980305-22.591531 22.290679-22.591531h122.598222z m245.195422 0c12.310374 0 22.290679 10.115382 22.290679 22.591531 0 12.477172-9.980305 22.591531-22.290679 22.591531H478.563982c-12.310374 0-22.290679-10.114358-22.290679-22.591531 0-12.477172 9.980305-22.591531 22.290679-22.591531h122.597199z m222.905766 0c12.310374 0 22.290679 10.115382 22.290679 22.591531 0 12.477172-9.980305 22.591531-22.290679 22.591531H701.468724c-12.310374 0-22.290679-10.114358-22.290679-22.591531 0-12.477172 9.980305-22.591531 22.290679-22.591531h122.598223z m-468.101188-135.550209c12.310374 0 22.290679 10.114358 22.290679 22.591531 0 12.477172-9.980305 22.591531-22.290679 22.591531H233.367537c-12.310374 0-22.290679-10.115382-22.290679-22.591531 0-12.477172 9.980305-22.591531 22.290679-22.591531h122.598222z m245.195422 0c12.310374 0 22.290679 10.114358 22.290679 22.591531 0 12.477172-9.980305 22.591531-22.290679 22.591531H478.563982c-12.310374 0-22.290679-10.115382-22.290679-22.591531 0-12.477172 9.980305-22.591531 22.290679-22.591531h122.597199z m222.905766 0c12.310374 0 22.290679 10.114358 22.290679 22.591531 0 12.477172-9.980305 22.591531-22.290679 22.591531H701.468724c-12.310374 0-22.290679-10.115382-22.290679-22.591531 0-12.477172 9.980305-22.591531 22.290679-22.591531h122.598223z m-468.101188-135.550209c12.310374 0 22.290679 10.115382 22.290679 22.591531 0 12.477172-9.980305 22.591531-22.290679 22.591531H233.367537c-12.310374 0-22.290679-10.114358-22.290679-22.591531 0-12.477172 9.980305-22.591531 22.290679-22.591531h122.598222z m245.195422 0c12.310374 0 22.290679 10.115382 22.290679 22.591531 0 12.477172-9.980305 22.591531-22.290679 22.591531H478.563982c-12.310374 0-22.290679-10.114358-22.290679-22.591531 0-12.477172 9.980305-22.591531 22.290679-22.591531h122.597199z m222.905766 0c12.310374 0 22.290679 10.115382 22.290679 22.591531 0 12.477172-9.980305 22.591531-22.290679 22.591531H701.468724c-12.310374 0-22.290679-10.114358-22.290679-22.591531 0-12.477172 9.980305-22.591531 22.290679-22.591531h122.598223z"  horiz-adv-x="1024" />

    
    <glyph glyph-name="bianji3" unicode="&#59171;" d="M243.2 271.7696v-121.7792h121.7792L880.5888 665.6l-121.7792 121.7792L243.2 271.7696zM758.784 896l230.4-230.4L396.7744 73.216h-230.4v230.4L758.8352 896zM0-51.2h1024v-76.8H0z"  horiz-adv-x="1024" />

    
    <glyph glyph-name="yiguanbi" unicode="&#59172;" d="M601.6 345.6c0-32-32-57.6-64-57.6s-64 25.6-64 57.6V838.4c0 32 32 57.6 64 57.6s64-25.6 64-57.6v-492.8zM0 377.6c0 179.2 96 339.2 236.8 428.8 25.6 19.2 64 6.4 83.2-19.2 19.2-25.6 6.4-64-19.2-83.2-102.4-70.4-179.2-192-179.2-326.4 0-211.2 172.8-384 390.4-384 211.2 0 384 172.8 390.4 384 0 140.8-76.8 262.4-192 332.8-32 19.2-38.4 51.2-19.2 83.2 12.8 25.6 51.2 32 76.8 12.8 153.6-83.2 256-243.2 256-428.8 0-275.2-230.4-505.6-512-505.6s-512 224-512 505.6"  horiz-adv-x="1024" />

    
    <glyph glyph-name="yiguanbi1" unicode="&#59173;" d="M857.83376895 847.88978481m61.2817864-61.28178636l0.03871533-0.03871538q61.28179003-61.28179003 0-122.56357633l-694.69469443-694.69469086q-61.28179003-61.28179003-122.56357641 0l-0.03871167 0.03871172q-61.28179003 61.28179003 0 122.56357636l694.69469085 694.69469449q61.28179003 61.28179003 122.56357633 0ZM163.08781638 847.88458954m-61.28178632-61.28178996l-0.03871539-0.03871173q-61.28179003-61.28179003 0-122.5635764l694.69469448-694.69469443q61.28179003-61.28179003 122.56357639 0l0.03871171 0.03871538q61.28179003 61.28179003 0 122.56357635l-694.69469081 694.69469083q-61.28179003 61.28179003-122.56357638 0Z"  horiz-adv-x="1024" />

    
    <glyph glyph-name="lajitong" unicode="&#59174;" d="M972.658 686.652c14.5-0.02 26.272 11.777 26.292 26.35 0.02 14.572-11.72 26.401-26.22 26.421L32.458 740.72c-14.501 0.02-26.273-11.777-26.292-26.35-0.02-14.572 11.719-26.402 26.22-26.422l940.272-1.295zM180.467-96.356v-26.659l26.526 0.274 626.369 6.473 25.986 0.269V606.603c0 14.572-11.755 26.386-26.256 26.386s-26.257-11.814-26.257-26.386v-696.486l25.987 26.384-626.369-6.473 26.527-26.384V613.33c0 14.573-11.756 26.386-26.257 26.386-14.5 0-26.256-11.813-26.256-26.386v-709.686zM656.41 48.921c0-14.573 11.756-26.386 26.257-26.386 14.5 0 26.256 11.813 26.256 26.386V523.868c0 14.573-11.755 26.386-26.256 26.386s-26.257-11.813-26.257-26.386v-474.947zM341.333 48.921c0-14.573 11.756-26.386 26.257-26.386 14.5 0 26.256 11.813 26.256 26.386V523.868c0 14.573-11.755 26.386-26.256 26.386s-26.257-11.813-26.257-26.386v-474.947zM498.872 48.921c0-14.573 11.755-26.386 26.256-26.386s26.257 11.813 26.257 26.386V523.868c0 14.573-11.756 26.386-26.257 26.386-14.5 0-26.256-11.813-26.256-26.386v-474.947zM392.148 779.278c0 14.658 11.61 26.358 26.253 26.358h204.525c14.483 0 26.253-11.798 26.253-26.186v-55.095h52.513V779.45c0 43.563-35.311 78.958-78.766 78.958H418.4c-43.677 0-78.766-35.359-78.766-79.13v-48.589h52.513v48.59z"  horiz-adv-x="1024" />

    
    <glyph glyph-name="dianjiliang" unicode="&#59167;" d="M791.272727-128C359.330909-128 0 243.712 0 384S359.330909 896 791.272727 896C1223.214545 896 1582.545455 524.288 1582.545455 384S1223.214545-128 791.272727-128z m0 930.909091C398.429091 802.909091 93.090909 468.712727 93.090909 384S398.429091-34.909091 791.272727-34.909091 1489.454545 299.287273 1489.454545 384 1184.116364 802.909091 791.272727 802.909091zM791.272727 151.272727A232.727273 232.727273 0 1 0 1024 384 233.006545 233.006545 0 0 0 791.272727 151.272727z m0 372.363637A139.636364 139.636364 0 1 1 930.909091 384 139.822545 139.822545 0 0 1 791.272727 523.636364z"  horiz-adv-x="1582" />

    
    <glyph glyph-name="bofang1" unicode="&#59168;" d="M512-128a512 512 0 1 0 512 512 512.57344 512.57344 0 0 0-512-512z m0 983.04a471.04 471.04 0 1 1 471.04-471.04A471.57248 471.57248 0 0 1 512 855.04zM409.6 512.26624v-256.53248a40.96 40.96 0 0 1 63.6928-34.07872l192.38912 128.26624a40.96 40.96 0 0 1 0 68.15744l-192.4096 128.26624A40.96 40.96 0 0 1 409.6 512.26624z"  horiz-adv-x="1024" />

    
    <glyph glyph-name="chushihua" unicode="&#59164;" d="M511.682434-128A468.457376 468.457376 0 0 0 44.559694 340.457376a66.73182 66.73182 0 0 0 133.46364 0A333.6591 333.6591 0 1 1 511.682434 675.451113a330.989827 330.989827 0 0 1-235.785764-98.095776 66.73182 66.73182 0 0 0-111.2197 66.73182l60.503517 203.309612a66.798552 66.798552 0 1 0 128.125094-37.814698l-9.564894-31.808835A468.234937 468.234937 0 1 0 511.682434-128zM600.658194 183.41516h-133.46364a66.73182 66.73182 0 0 0-66.73182 66.73182V472.58638a66.73182 66.73182 0 0 0 133.46364 0v-155.70758h66.73182a66.73182 66.73182 0 0 0 0-133.46364z"  horiz-adv-x="1024" />

    
    <glyph glyph-name="ceshiji" unicode="&#59166;" d="M536.332172 333.97898a75.330291 75.330291 0 0 0-29.985844 6.338471l-463.195967 207.95061a73.136205 73.136205 0 0 0 0 133.351681l463.195967 207.95061a73.136205 73.136205 0 0 0 59.971688 0l463.195966-207.95061a73.136205 73.136205 0 0 0 0-133.351681l-463.195966-207.95061a75.330291 75.330291 0 0 0-29.985844-6.338471zM251.832333 614.822008L536.332172 487.321224l284.499838 127.500784L536.332172 742.56658zM536.332172 102.868571a73.136205 73.136205 0 0 0-31.204781 7.069834l-463.195967 219.408615a73.184963 73.184963 0 0 0 62.409562 132.376532L536.332172 257.429752l431.259823 215.020443a73.136205 73.136205 0 0 0 65.33501-130.913807l-463.195966-230.866621a73.136205 73.136205 0 0 0-33.398867-7.801196zM536.332172-127.99805a73.136205 73.136205 0 0 0-31.204781 7.069833l-463.195967 219.408616a73.136205 73.136205 0 0 0 62.409562 131.888957L536.332172 26.319343l431.259823 215.264231a73.136205 73.136205 0 0 0 65.33501-130.913807l-463.195966-230.866621A73.136205 73.136205 0 0 0 536.332172-127.99805z"  horiz-adv-x="1073" />

    
    <glyph glyph-name="guolvqi" unicode="&#59163;" d="M908.6 761.3c6.5-15.5 3.8-28.8-8-39.7L620.9 441.9V21c0-15.8-7.4-27.1-22.1-33.5-4.9-2-9.7-2.9-14.2-2.9-10.3 0-18.7 3.6-25.5 10.7L413.8 140.8c-7.2 7.2-10.7 15.7-10.7 25.5V441.9L123.4 721.6c-11.7 11-14.3 24.2-8 39.7 6.5 14.8 17.5 22.1 33.5 22.1H875c16 0.1 27.2-7.3 33.6-22.1z"  horiz-adv-x="1024" />

    
    <glyph glyph-name="jiashang1" unicode="&#59161;" d="M512-128C228.693333-128 0 100.693333 0 384S228.693333 896 512 896s512-228.693333 512-512-228.693333-512-512-512z m0 989.866667C249.173333 861.866667 34.133333 646.826667 34.133333 384s215.04-477.866667 477.866667-477.866667 477.866667 215.04 477.866667 477.866667S774.826667 861.866667 512 861.866667zM699.733333 332.8h-375.466666c-20.48 0-34.133333 13.653333-34.133334 34.133333s13.653333 34.133333 34.133334 34.133334h375.466666c20.48 0 34.133333-13.653333 34.133334-34.133334s-13.653333-34.133333-34.133334-34.133333zM512 145.066667c-20.48 0-34.133333 13.653333-34.133333 34.133333V554.666667c0 20.48 13.653333 34.133333 34.133333 34.133333s34.133333-13.653333 34.133333-34.133333v-375.466667c0-20.48-13.653333-34.133333-34.133333-34.133333z"  horiz-adv-x="1024" />

    
    <glyph glyph-name="jianqu1" unicode="&#59160;" d="M512-128C228.693333-128 0 100.693333 0 384S228.693333 896 512 896s512-228.693333 512-512-228.693333-512-512-512z m0 989.866667C249.173333 861.866667 34.133333 646.826667 34.133333 384s215.04-477.866667 477.866667-477.866667 477.866667 215.04 477.866667 477.866667S774.826667 861.866667 512 861.866667zM699.733333 332.8h-375.466666c-20.48 0-34.133333 13.653333-34.133334 34.133333s13.653333 34.133333 34.133334 34.133334h375.466666c20.48 0 34.133333-13.653333 34.133334-34.133334s-13.653333-34.133333-34.133334-34.133333z"  horiz-adv-x="1024" />

    
    <glyph glyph-name="jiashang" unicode="&#59159;" d="M512-128C228.693333-128 0 100.693333 0 384S228.693333 896 512 896s512-228.693333 512-512-228.693333-512-512-512z m0 989.866667C249.173333 861.866667 34.133333 646.826667 34.133333 384s215.04-477.866667 477.866667-477.866667 477.866667 215.04 477.866667 477.866667S774.826667 861.866667 512 861.866667zM699.733333 332.8h-375.466666c-20.48 0-34.133333 13.653333-34.133334 34.133333s13.653333 34.133333 34.133334 34.133334h375.466666c20.48 0 34.133333-13.653333 34.133334-34.133334s-13.653333-34.133333-34.133334-34.133333zM512 145.066667c-20.48 0-34.133333 13.653333-34.133333 34.133333V554.666667c0 20.48 13.653333 34.133333 34.133333 34.133333s34.133333-13.653333 34.133333-34.133333v-375.466667c0-20.48-13.653333-34.133333-34.133333-34.133333z"  horiz-adv-x="1024" />

    
    <glyph glyph-name="jianqu" unicode="&#59158;" d="M512-128C228.693333-128 0 100.693333 0 384S228.693333 896 512 896s512-228.693333 512-512-228.693333-512-512-512z m0 989.866667C249.173333 861.866667 34.133333 646.826667 34.133333 384s215.04-477.866667 477.866667-477.866667 477.866667 215.04 477.866667 477.866667S774.826667 861.866667 512 861.866667zM699.733333 332.8h-375.466666c-20.48 0-34.133333 13.653333-34.133334 34.133333s13.653333 34.133333 34.133334 34.133334h375.466666c20.48 0 34.133333-13.653333 34.133334-34.133334s-13.653333-34.133333-34.133334-34.133333z"  horiz-adv-x="1024" />

    
    <glyph glyph-name="shanchu2" unicode="&#59157;" d="M512 384m-512 0a512 512 0 1 1 1024 0 512 512 0 1 1-1024 0ZM665.6 179.2c-15.36 0-25.6 5.12-35.84 15.36L512 312.32l-117.76-117.76c-20.48-20.48-51.2-20.48-71.68 0s-20.48 51.2 0 71.68L440.32 384 322.56 501.76c-20.48 20.48-20.48 51.2 0 71.68s51.2 20.48 71.68 0L512 455.68l117.76 117.76c20.48 20.48 51.2 20.48 71.68 0s20.48-51.2 0-71.68L583.68 384l117.76-117.76c20.48-20.48 20.48-51.2 0-71.68-10.24-10.24-20.48-15.36-35.84-15.36z"  horiz-adv-x="1024" />

    
    <glyph glyph-name="shijuan1" unicode="&#59156;" d="M352.256 865.28h436.224c112.64 0 204.8-92.16 204.8-204.8v-552.96c0-112.64-92.16-204.8-204.8-204.8H352.256c-112.64 0-204.8 92.16-204.8 204.8v552.96c0 112.64 90.112 204.8 204.8 204.8zM788.48-128H352.256c-129.024 0-235.52 106.496-235.52 235.52v552.96C116.736 789.504 221.184 896 352.256 896h436.224C917.504 896 1024 789.504 1024 660.48v-552.96C1024-21.504 917.504-128 788.48-128zM352.256 834.56c-96.256 0-174.08-77.824-174.08-174.08v-552.96c0-96.256 77.824-174.08 174.08-174.08h436.224c96.256 0 174.08 77.824 174.08 174.08v552.96C962.56 756.736 884.736 834.56 788.48 834.56H352.256zM311.296 564.224m-40.96 0a40.96 40.96 0 1 1 81.92 0 40.96 40.96 0 1 1-81.92 0ZM311.296 332.8m-40.96 0a40.96 40.96 0 1 1 81.92 0 40.96 40.96 0 1 1-81.92 0ZM841.728 545.792H471.04c-16.384 0-30.72 14.336-30.72 30.72s14.336 30.72 30.72 30.72h370.688c16.384 0 30.72-14.336 30.72-30.72s-12.288-30.72-30.72-30.72zM841.728 314.368H471.04c-16.384 0-30.72 14.336-30.72 30.72s14.336 30.72 30.72 30.72h370.688c16.384 0 30.72-14.336 30.72-30.72s-12.288-30.72-30.72-30.72zM819.2-97.28c-26.624 32.768-43.008 61.44-47.104 88.064-4.096 24.576-2.048 59.392 8.192 104.448v6.144c0 16.384-14.336 30.72-30.72 30.72H61.44c-16.384 0-30.72-14.336-30.72-30.72v-83.968c0-63.488 51.2-114.688 114.688-114.688H819.2zM882.688-128h-737.28C65.536-128 0-62.464 0 17.408v83.968c0 34.816 26.624 61.44 61.44 61.44h688.128c34.816 0 61.44-26.624 61.44-61.44 0-4.096 0-8.192-2.048-12.288-8.192-43.008-10.24-73.728-8.192-94.208 4.096-18.432 16.384-43.008 40.96-73.728l40.96-49.152zM61.44 101.376v-83.968C61.44-29.696 98.304-66.56 145.408-66.56h614.4c-10.24 18.432-16.384 34.816-18.432 51.2-4.096 26.624-2.048 63.488 8.192 116.736H61.44z"  horiz-adv-x="1024" />

    
    <glyph glyph-name="zuoyoutuodong" unicode="&#59154;" d="M558.848-76.288L35.84 354.304a38.4 38.4 0 0 0 0 59.392L558.848 844.288a38.4 38.4 0 0 0 62.72-29.696v-221.44a38.4 38.4 0 0 1 38.4-38.4h728.064a38.4 38.4 0 0 1 38.4 38.4V814.464a38.4 38.4 0 0 0 62.72 29.696l522.88-430.592a38.4 38.4 0 0 0 0-59.392l-522.88-430.592a38.4 38.4 0 0 0-62.72 29.696v221.44a38.4 38.4 0 0 1-38.4 38.4H659.968a38.4 38.4 0 0 1-38.4-38.4v-221.44a38.4 38.4 0 0 0-62.72-29.696z"  horiz-adv-x="2048" />

    
    <glyph glyph-name="shangxiatuodong" unicode="&#59155;" d="M742.144 151.424L526.848-110.08a19.2 19.2 0 0 0-29.696 0L281.856 151.424a19.2 19.2 0 0 0 14.848 31.36h110.72a19.2 19.2 0 0 1 19.2 19.2V566.016a19.2 19.2 0 0 1-19.2 19.2H296.768a19.2 19.2 0 0 0-14.848 31.36L497.152 878.08a19.2 19.2 0 0 0 29.696 0l215.296-261.44a19.2 19.2 0 0 0-14.848-31.36h-110.72a19.2 19.2 0 0 1-19.2-19.2v-364.032a19.2 19.2 0 0 1 19.2-19.2h110.72a19.2 19.2 0 0 0 14.848-31.36z"  horiz-adv-x="1024" />

    
    <glyph glyph-name="bianzu2" unicode="&#59153;" d="M512 353.882353m-240.941176 0a240.941176 240.941176 0 1 1 481.882352 0 240.941176 240.941176 0 1 1-481.882352 0ZM512 534.588235m-361.411765 0a361.411765 361.411765 0 1 1 722.82353 0 361.411765 361.411765 0 1 1-722.82353 0ZM402.552471 426.285176L279.491765 527.600941a9.035294 9.035294 0 0 0 0 13.974588l123.030588 101.315765a9.035294 9.035294 0 0 0 14.757647-6.987294v-52.103529a9.035294 9.035294 0 0 1 9.035294-9.035295h171.309177a9.035294 9.035294 0 0 1 9.035294 9.035295v52.103529a9.035294 9.035294 0 0 0 14.757647 6.987294l123.030588-101.315765a9.035294 9.035294 0 0 0 0-13.974588l-123.030588-101.315765a9.035294 9.035294 0 0 0-14.757647 6.987295v52.103529a9.035294 9.035294 0 0 1-9.035294 9.035294H426.345412a9.035294 9.035294 0 0 1-9.035294-9.035294v-52.103529a9.035294 9.035294 0 0 0-14.757647-6.987295z"  horiz-adv-x="1024" />

    
    <glyph glyph-name="fuzhi3" unicode="&#59152;" d="M648.533333-128h-477.866666C75.093333-128 0-52.906667 0 42.666667v477.866666C0 616.106667 75.093333 691.2 170.666667 691.2h477.866666C744.106667 691.2 819.2 616.106667 819.2 520.533333v-477.866666c0-95.573333-75.093333-170.666667-170.666667-170.666667z m-477.866666 750.933333C116.053333 622.933333 68.266667 575.146667 68.266667 520.533333v-477.866666c0-54.613333 47.786667-102.4 102.4-102.4h477.866666c54.613333 0 102.4 47.786667 102.4 102.4v477.866666c0 54.613333-47.786667 102.4-102.4 102.4h-477.866666zM955.733333 110.933333c-20.48 0-34.133333 13.653333-34.133333 34.133334V691.2c0 54.613333-47.786667 102.4-102.4 102.4H273.066667c-20.48 0-34.133333 13.653333-34.133334 34.133333s13.653333 34.133333 34.133334 34.133334h546.133333c95.573333 0 170.666667-75.093333 170.666667-170.666667v-546.133333c0-20.48-13.653333-34.133333-34.133334-34.133334z"  horiz-adv-x="1024" />

    
    <glyph glyph-name="jianhao" unicode="&#59151;" d="M768 341.333333H256c-25.6 0-42.666667 17.066667-42.666667 42.666667s17.066667 42.666667 42.666667 42.666667h512c25.6 0 42.666667-17.066667 42.666667-42.666667s-17.066667-42.666667-42.666667-42.666667z"  horiz-adv-x="1024" />

    
    <glyph glyph-name="shitilan" unicode="&#59150;" d="M816.118519-128H184.019753c-69.530864 0-126.419753 56.888889-126.419753 126.419753V756.938272C57.6 826.469136 114.488889 883.358025 184.019753 883.358025h568.888889l189.62963-189.62963v-695.308642c0-69.530864-56.888889-126.419753-126.419753-126.419753zM727.624691 820.148148H184.019753c-37.925926 0-63.209877-25.283951-63.209876-63.209876v-758.518519c0-37.925926 25.283951-63.209877 63.209876-63.209876h632.098766c37.925926 0 63.209877 25.283951 63.209876 63.209876V668.444444L727.624691 820.148148zM955.180247 662.123457h-189.62963c-25.283951 0-44.246914 18.962963-44.246913 44.246913l6.320987 189.62963 227.555556-233.876543z m-170.666667 82.172839v-18.962963h18.962963l-18.962963 18.962963zM670.735802 567.308642H329.402469c-18.962963 0-31.604938 12.641975-31.604938 31.604938S310.439506 630.518519 329.402469 630.518519h341.333333c18.962963 0 31.604938-12.641975 31.604939-31.604939s-12.641975-31.604938-31.604939-31.604938zM670.735802 314.469136H329.402469c-18.962963 0-31.604938 12.641975-31.604938 31.604938S310.439506 377.679012 329.402469 377.679012h341.333333c18.962963 0 31.604938-12.641975 31.604939-31.604938s-12.641975-31.604938-31.604939-31.604938zM670.735802 61.62963H329.402469c-18.962963 0-31.604938 12.641975-31.604938 31.604938s12.641975 31.604938 31.604938 31.604938h341.333333c18.962963 0 31.604938-12.641975 31.604939-31.604938s-12.641975-31.604938-31.604939-31.604938z"  horiz-adv-x="1024" />

    
    <glyph glyph-name="shanchu1" unicode="&#59149;" d="M672-96H358.4c-76.8 0-140.8 57.6-153.6 140.8L96 569.6c0 19.2 6.4 32 25.6 38.4 19.2 6.4 32-6.4 38.4-25.6l102.4-524.8c12.8-51.2 51.2-89.6 96-89.6h313.6c44.8 0 83.2 38.4 96 89.6l102.4 524.8c6.4 19.2 19.2 25.6 38.4 25.6 19.2-6.4 25.6-19.2 25.6-38.4L832 44.8c-19.2-83.2-83.2-140.8-160-140.8zM608 704v6.4c0 51.2-44.8 89.6-96 89.6S416 755.2 416 704h-64C352 793.6 422.4 864 512 864c83.2 0 153.6-64 160-153.6V704h-64zM384 38.4c-12.8 0-25.6 12.8-32 25.6L256 576c0 19.2 12.8 32 25.6 38.4 19.2 0 38.4-12.8 38.4-25.6l96-512c0-19.2-6.4-38.4-32-38.4 6.4 0 0 0 0 0zM640 38.4s-6.4 0 0 0c-25.6 6.4-32 19.2-32 38.4l96 512c0 19.2 19.2 32 38.4 25.6 12.8-6.4 25.6-19.2 25.6-38.4l-96-512c-6.4-12.8-19.2-25.6-32-25.6zM512 38.4c-19.2 0-32 12.8-32 32v512c0 19.2 12.8 32 32 32s32-12.8 32-32v-512c0-19.2-12.8-32-32-32zM992 640H32C12.8 640 0 652.8 0 672S12.8 704 32 704h960c19.2 0 32-12.8 32-32s-12.8-32-32-32z"  horiz-adv-x="1024" />

    
    </font>
</defs>
</svg>
