<?xml version="1.0" standalone="no"?>
<!DOCTYPE svg PUBLIC "-//W3C//DTD SVG 1.1//EN" "http://www.w3.org/Graphics/SVG/1.1/DTD/svg11.dtd" >
<!--
2013-9-30: Created.
-->
<svg>
<metadata>
Created by iconfont
</metadata>
<defs>

<font id="iconfont" horiz-adv-x="1024" >
  <font-face
    font-family="iconfont"
    font-weight="500"
    font-stretch="normal"
    units-per-em="1024"
    ascent="896"
    descent="-128"
  />
    <missing-glyph />
    
    <glyph glyph-name="roundclose" unicode="&#58995;" d="M512-64C264.96-64 64 136.96 64 384S264.96 832 512 832s448-200.96 448-448S759.04-64 512-64zM512 767.712C300.416 767.712 128.288 595.584 128.288 384c0-211.552 172.128-383.712 383.712-383.712 211.552 0 383.712 172.16 383.712 383.712C895.712 595.584 723.552 767.712 512 767.712zM557.056 382.624l138.368 136.864c12.576 12.416 12.672 32.672 0.256 45.248-12.416 12.576-32.704 12.672-45.248 0.256l-138.56-137.024-136.448 136.864c-12.512 12.512-32.736 12.576-45.248 0.064-12.512-12.48-12.544-32.736-0.064-45.248l136.256-136.672-137.376-135.904c-12.576-12.448-12.672-32.672-0.256-45.248 6.272-6.336 14.496-9.504 22.752-9.504 8.128 0 16.256 3.104 22.496 9.248l137.568 136.064 138.688-139.136c6.24-6.272 14.432-9.408 22.656-9.408 8.192 0 16.352 3.136 22.592 9.344 12.512 12.48 12.544 32.704 0.064 45.248L557.056 382.624z"  horiz-adv-x="1024" />

    
    <glyph glyph-name="timefill" unicode="&#59001;" d="M512 832C264.96 832 64 631.04 64 384s200.96-448 448-448 448 200.96 448 448S759.04 832 512 832zM671.264 320l-191.104 0C462.496 320 448 334.464 448 352.16L448 606.912c0 17.664 14.336 32 32 32s32-14.336 32-32L512 384l159.264 0c17.696 0 32-14.336 32-32C703.264 334.304 688.928 320 671.264 320z"  horiz-adv-x="1024" />

    
    <glyph glyph-name="roundaddfill" unicode="&#59096;" d="M828.704 699.424c-84.608 84.192-197.056 130.56-316.704 130.56s-232.128-46.368-316.736-130.56C110.624 615.2 64 503.168 64 384c0-119.2 46.624-231.2 131.232-315.424 84.608-84.192 197.088-130.56 316.736-130.56s232.128 46.368 316.704 130.56c84.672 84.256 131.296 196.288 131.264 315.456C959.968 503.2 913.376 615.2 828.704 699.424zM736 352l-192 0 0-192c0-17.696-14.336-32-32-32s-32 14.304-32 32l0 192L288 352c-17.664 0-32 14.336-32 32s14.336 32 32 32l192 0L480 608c0 17.664 14.336 32 32 32s32-14.336 32-32l0-192 192 0c17.696 0 32-14.336 32-32S753.696 352 736 352z"  horiz-adv-x="1024" />

    
    <glyph glyph-name="cuban2shangchuanyunduan" unicode="&#59501;" d="M787.842844 18.946133c-4.3008-1.956978-8.988444-3.185778-14.017422-3.185778l-18.978133 0c-1.319822-0.022756-2.594133-0.2048-3.913956-0.2048-1.251556 0-2.4576 0.182044-3.731911 0.2048L648.533333 15.760356l0 68.266667 113.777778 0.955733 0 0c76.276622 5.893689 136.533333 68.949333 136.533333 146.750578 0 77.778489-60.256711 140.834133-136.533333 146.750578l0 1.160533-68.266667 0c0 113.117867-91.682133 204.8-204.8 204.8s-204.8-91.682133-204.8-204.8c0-7.736889 0.682667-15.268978 1.547378-22.755556L261.688889 356.888889l0 0 0 0c-75.389156 0-136.533333-61.144178-136.533333-136.533333 0-74.752 60.120178-135.281778 134.621867-136.328533L352.711111 84.027022l0-68.266667-87.404089 0c-1.206044-0.022756-2.389333-0.2048-3.618133-0.2048-1.319822 0-2.594133 0.182044-3.913956 0.2048l-7.350044 0c-0.864711 0-1.592889 0.432356-2.434844 0.477867C141.289244 23.337956 56.888889 111.879822 56.888889 220.378311c0 98.668089 69.791289 181.020444 162.724978 200.430933C239.479467 552.040533 352.4608 652.733867 489.244444 652.733867c127.226311 0 233.836089-87.153778 264.146489-204.936533 118.237867-1.342578 213.720178-97.4848 213.720178-216.041244C967.111111 124.987022 889.605689 36.490667 787.842844 18.946133zM338.3296 209.000533l138.148978 138.126222c13.334756 13.334756 34.929778 13.357511 48.264533 0l138.148978-138.126222c13.334756-13.334756 13.334756-34.952533 0-48.287289-13.334756-13.312-34.952533-13.312-48.264533 0.022756L534.755556 240.608 534.755556-18.577778c0-18.864356-15.268978-34.156089-34.133333-34.156089-18.8416 0-34.133333 15.291733-34.133333 34.156089L466.488889 240.608l-79.872-79.894756c-13.312-13.334756-34.952533-13.312-48.287289 0.022756S325.0176 195.665778 338.3296 209.000533z"  horiz-adv-x="1024" />

    
    <glyph glyph-name="css3" unicode="&#60043;" d="M157.110857 822.857143l860.013714 0-151.990857-761.709714-459.410286-152.576-398.848 152.576 40.594286 203.410286 169.691429 0-16.603429-83.968 241.152-92.013714 277.723429 92.013714 38.838857 193.682286-690.322286 0 33.133714 169.691429 690.834286 0 21.723429 109.129143-690.322286 0z"  horiz-adv-x="1024" />

    
    <glyph glyph-name="html5" unicode="&#60176;" d="M755.419429 554.861714l9.142857 99.986286-505.124571 0 26.843429-305.152 349.696 0-12.580571-130.267429-112.566857-30.281143-111.981714 30.281143-7.460571 80.018286-99.986286 0 12.580571-158.866286 206.848-57.124571 2.267429 0 0 0.585143 205.165714 56.539429 28.598857 310.857143-367.981714 0-8.557714 103.424 385.170286 0zM109.714286 822.857143l804.571429 0-73.142857-821.686857-330.313143-92.598857-327.972571 92.598857z"  horiz-adv-x="1024" />

    
    <glyph glyph-name="31" unicode="&#59058;" d="M726.277689 668.444444l-91.886933-138.899911L539.420444 668.444444 726.277689 668.444444zM619.793067 497.777778 415.9488 497.777778l101.910756-387.629511L619.793067 497.777778zM422.752711 520.533333l190.225067 0-95.118222 139.127467L422.752711 520.533333zM401.351111 529.544533 496.310044 668.444444 309.464178 668.444444 401.351111 529.544533zM496.264533 102.843733 392.430933 497.777778 168.721067 497.777778 496.264533 102.843733zM169.039644 520.533333l210.989511 0-91.909689 138.934044L169.039644 520.533333zM747.463111 659.217067 655.712711 520.533333l210.625422 0L747.463111 659.217067zM643.310933 497.777778l-103.844978-394.899911L866.656711 497.777778 643.310933 497.777778z"  horiz-adv-x="1024" />

    
    <glyph glyph-name="zhangjie1" unicode="&#59022;" d="M336.034909 578.970182l606.021818 0c19.572364 0 35.397818 22.202182 35.397818 47.918545s-15.848727 45.730909-35.397818 45.730909l-606.021818 0c-19.572364 0-35.397818-20.014545-35.397818-45.730909S316.462545 578.970182 336.034909 578.970182zM942.056727 323.970909l-606.021818 0c-19.572364 0-35.397818-23.226182-35.397818-45.963636 0-22.760727 15.825455-47.778909 35.397818-47.778909l606.021818 0c19.572364 0 35.397818 25.018182 35.397818 47.778909C977.454545 300.744727 961.605818 323.970909 942.056727 323.970909zM942.056727-1.870545l-606.021818 0c-19.572364 0-35.397818-20.852364-35.397818-43.566545s15.825455-50.385455 35.397818-50.385455l606.021818 0c19.572364 0 35.397818 27.671273 35.397818 50.385455S961.605818-1.870545 942.056727-1.870545zM105.984 672.224c-25.995636 0-47.057455-21.085091-47.057455-47.057455 0-25.995636 21.085091-47.057455 47.057455-47.057455 25.995636 0 47.057455 21.061818 47.057455 47.057455C153.064727 651.138909 131.979636 672.224 105.984 672.224zM105.984 323.133091c-25.995636 0-47.057455-21.085091-47.057455-47.057455 0-25.995636 21.085091-47.057455 47.057455-47.057455 25.995636 0 47.057455 21.061818 47.057455 47.057455C153.064727 302.048 131.979636 323.133091 105.984 323.133091zM105.984-2.685091c-25.995636 0-47.057455-21.085091-47.057455-47.057455 0-25.995636 21.085091-47.057455 47.057455-47.057455 25.995636 0 47.057455 21.061818 47.057455 47.057455C153.064727-23.770182 131.979636-2.685091 105.984-2.685091z"  horiz-adv-x="1024" />

    
    <glyph glyph-name="htmal5icon19" unicode="&#58987;" d="M625.425306 214.410534l-115.472941 115.472941-115.471918-115.472941-54.117548 54.118572 115.471918 115.471918-115.471918 115.472941 54.117548 54.117548 115.471918-115.471918 115.472941 115.471918 54.117548-54.117548-115.472941-115.472941 115.472941-115.471918L625.425306 214.410534zM780.543176 654.590811c-148.824537 148.824537-392.356063 148.824537-541.1806 0s-148.824537-392.355039 0-541.179576 392.356063-148.824537 541.1806 0C929.367713 262.234749 929.367713 505.766274 780.543176 654.590811z"  horiz-adv-x="1024" />

    
    <glyph glyph-name="shequ" unicode="&#59068;" d="M369 461l300 0 0-51-300 0 0 51ZM369 335l300 0 0-50-300 0 0 50ZM369 211l300 0 0-52-300 0 0 52ZM1010.8 426.9 530.1 879.3c-9.7 9.1-24.7 9.1-34.4 0L15 426.9c-7.5-7-9.9-17.2-6.1-26.7 3.8-9.5 13-15.1 23.3-15.1L194 385.1l0-475.5c0-13.8 10.9-24.5 24.7-24.5l601 0c13.8 0 24.3 10.7 24.3 24.5L844 385l149.7 0c10.2 0 19.5 5.6 23.3 15.1C1020.7 409.6 1018.3 419.8 1010.8 426.9zM819.7 436c-13.8 0-24.7-13.5-24.7-27.3L795-65 243-65 243 408.7c0 13.8-10.5 27.3-24.3 27.3L95.2 436 512.9 829.2 930.6 436 819.7 436z"  horiz-adv-x="1024" />

    
    <glyph glyph-name="jinzhi" unicode="&#59092;" d="M512 896C229.222291 896 0 666.777709 0 384c0-282.777709 229.222291-512 512-512 282.777709 0 512 229.201014 512 512C1023.978723 666.777709 794.777709 896 512 896zM77.194697 384c0 240.116361 194.667664 434.784025 434.784025 434.784025 64.811204 0 126.324398-14.213357 181.582014-39.639945L279.330757 16.686864C157.857624 93.775174 77.194697 229.461663 77.194697 384zM512-50.762748c-52.257491 0-102.344679 9.234426-148.729585 26.107468L773.819391 731.09953c105.068196-79.343723 172.943357-205.285127 172.943357-347.09953C946.762748 143.883639 752.116361-50.762748 512-50.762748z"  horiz-adv-x="1024" />

    
    <glyph glyph-name="vs" unicode="&#59010;" d="M161.109333 636.836978l109.715911-392.612978 110.262044 392.612978 126.987378 0L365.499733 129.490489 176.150756 129.490489 34.133333 636.836978 161.109333 636.836978zM989.866667 597.2992 718.654578 597.2992c-27.841422 0-50.699378-22.823822-50.699378-50.676622l0-134.200889L989.866667 412.421689l0-180.462933c0-55.694222-45.6704-101.910756-101.364622-101.910756L540.990578 130.048l0 40.664178 270.665956 0c27.841422 0 51.234133 22.823822 51.234133 50.665244L862.890667 371.2 540.990578 371.2 540.990578 536.598756c0 55.694222 45.6704 101.922133 101.922133 101.922133L989.866667 638.520889 989.866667 597.2992z"  horiz-adv-x="1024" />

    
    <glyph glyph-name="weibiaoti12" unicode="&#58993;" d="M960 320 64 320c-35.2 0-64 28.8-64 64 0 35.2 28.8 64 64 64l896 0c35.2 0 64-28.8 64-64C1024 348.8 995.2 320 960 320zM960 696 64 696c-35.2 0-64 28.8-64 64 0 35.2 28.8 64 64 64l896 0c35.2 0 64-28.8 64-64C1024 724.8 995.2 696 960 696zM64 72l896 0c35.2 0 64-28.8 64-64 0-35.2-28.8-64-64-64L64-56c-35.2 0-64 28.8-64 64C0 43.2 28.8 72 64 72z"  horiz-adv-x="1024" />

    
    <glyph glyph-name="pdf" unicode="&#59200;" d="M905.185809 717.155842C898.576738 723.314515 891.19337 730.175588 883.21687 737.563873 860.422682 758.677137 837.434925 779.792209 815.697647 799.512105 813.243072 801.738123 813.243072 801.738123 810.786411 803.962919 781.783552 830.218938 757.590948 851.623498 739.713617 866.706388 729.254178 875.530889 721.020606 882.139314 714.970549 886.498273 710.955023 889.391389 707.690543 891.475255 704.47155 893.001286 700.417679 894.92311 696.638044 896.094029 691.307277 895.994072 677.045677 895.726651 665.6 884.230663 665.6 869.817273L665.6 818.647156 665.6 767.477039 665.6 665.136806 665.6 639.551748 691.2 639.551748 896 639.551748 870.4 665.136806 870.4-102.414942 896-76.829884 230.381436-76.829884C187.90385-76.829884 153.6-42.623723 153.6-0.20663L153.6 869.817273 128 844.232214 588.8 844.232214C602.93849 844.232214 614.4 855.687035 614.4 869.817273 614.4 883.94751 602.93849 895.402331 588.8 895.402331L128 895.402331 102.4 895.402331 102.4 869.817273 102.4-0.20663C102.4-70.91021 159.652833-128 230.381436-128L896-128 921.6-128 921.6-102.414942 921.6 665.136806 921.6 690.721865 896 690.721865 691.2 690.721865 716.8 665.136806 716.8 767.477039 716.8 818.647156 716.8 869.817273C716.8 856.186238 705.748075 845.08573 692.267725 844.832959 687.705707 844.747416 685.069822 845.564005 682.52845 846.768796 682.259458 846.896318 683.344977 846.203382 685.029451 844.989748 689.779394 841.567498 697.145822 835.65506 706.686383 827.605804 724.009052 812.990879 747.816448 791.927131 776.413589 766.038406 778.850014 763.831936 778.850014 763.831936 781.285216 761.623486 802.876774 742.035788 825.739479 721.03558 848.413564 700.033563 856.350957 692.6815 863.697005 685.855107 870.269888 679.730157 874.209847 676.058701 877.019309 673.434359 878.499674 672.048591 888.81866 662.389069 905.019017 662.918788 914.684179 673.231753 924.349344 683.544717 923.819315 699.735617 913.500326 709.395139 911.981323 710.817055 909.155025 713.457124 905.185809 717.155842ZM102.4 434.871281 0 434.871281 0-0.074709 512-0.074709 1024-0.074709 1024 434.871281 153.6 434.871281 153.6 435.468951 102.4 435.468951 102.4 434.871281ZM208.2 185 208.2 76.8 157.6 76.8 157.6 368 269 368C301.533495 368 327.366571 359.533419 346.5 342.6 365.633429 325.666581 375.2 303.266805 375.2 275.4 375.2 246.866524 365.833427 224.666746 347.1 208.8 328.366573 192.933254 302.133502 185 268.4 185L208.2 185ZM208.2 225.6 269 225.6C287.00009 225.6 300.733286 229.833291 310.2 238.3 319.666714 246.766709 324.4 258.999921 324.4 275 324.4 290.733412 319.600047 303.299953 310 312.7 300.399951 322.100047 287.200083 326.933331 270.4 327.2L208.2 327.2 208.2 225.6ZM419.4 76.8 419.4 368 505.4 368C531.133461 368 553.966566 362.266724 573.9 350.8 593.833434 339.333276 609.266611 323.066771 620.2 302 631.133389 280.933229 636.6 256.800137 636.6 229.6L636.6 215C636.6 187.399861 631.100055 163.133438 620.1 142.2 609.099945 121.266562 593.433436 105.133391 573.1 93.8 552.766564 82.466609 529.466799 76.8 503.2 76.8L419.4 76.8ZM470 327.2 470 117.2 503 117.2C529.533466 117.2 549.89993 125.499917 564.1 142.1 578.30007 158.700083 585.533331 182.533178 585.8 213.6L585.8 229.8C585.8 261.400158 578.933402 285.53325 565.2 302.2 551.466598 318.86675 531.533463 327.2 505.4 327.2L470 327.2ZM854.8 200.2 737.6 200.2 737.6 76.8 687 76.8 687 368 872 368 872 327.2 737.6 327.2 737.6 240.6 854.8 240.6 854.8 200.2Z"  horiz-adv-x="1024" />

    
    <glyph glyph-name="danxuanxuanzhong1" unicode="&#59069;" d="M512-128C229.230208-128 0 101.230208 0 384 0 666.769792 229.230208 896 512 896 794.769792 896 1024 666.769792 1024 384 1024 101.230208 794.769792-128 512-128ZM512-64C759.423565-64 960 136.576435 960 384 960 631.423568 759.423565 832 512 832 264.576432 832 64 631.423568 64 384 64 136.576435 264.576432-64 512-64ZM512 64C688.731117 64 832 207.268883 832 384 832 560.73112 688.731117 704 512 704 335.26888 704 192 560.73112 192 384 192 207.268883 335.26888 64 512 64Z"  horiz-adv-x="1024" />

    
    <glyph glyph-name="shijian" unicode="&#59036;" d="M506.678925-81.849905c-63.955231 0-125.966224 12.484061-184.395723 37.247527-56.382932 23.84251-107.035475 58.020186-150.627361 101.509743-43.489557 43.489557-77.667233 94.142101-101.509743 150.627361-24.763466 58.429499-37.247527 120.440492-37.247527 184.395723S45.382632 517.999001 70.043769 576.4285c23.84251 56.382932 58.020186 107.035475 101.509743 150.627361 43.489557 43.489557 94.142101 77.667233 150.627361 101.509743 58.429499 24.763466 120.440492 37.247527 184.395723 37.247527s125.966224-12.484061 184.395723-37.247527c56.382932-23.84251 107.035475-58.020186 150.627361-101.509743 43.489557-43.489557 77.667233-94.142101 101.509743-150.627361 24.763466-58.429499 37.247527-120.440492 37.247527-184.395723S967.872889 265.964225 943.211752 207.534726c-23.84251-56.382932-58.020186-107.035475-101.509743-150.627361-43.489557-43.489557-94.142101-77.667233-150.627361-101.509743C632.645148-69.263516 570.531828-81.849905 506.678925-81.849905zM506.678925 804.31378c-55.666633 0-109.696013-10.949136-160.553213-32.438093-49.117618-20.772659-93.221145-50.550215-131.082642-88.411712s-67.639053-81.965024-88.411712-131.082642c-21.488958-50.8572-32.438093-104.784251-32.438093-160.553213s10.949136-109.696013 32.438093-160.553213c20.772659-49.117618 50.550215-93.221145 88.411712-131.082642s81.965024-67.639053 131.082642-88.411712c50.8572-21.488958 104.784251-32.438093 160.553213-32.438093s109.696013 10.949136 160.553213 32.438093c49.117618 20.772659 93.221145 50.550215 131.082642 88.411712s67.639053 81.965024 88.411712 131.082642c21.488958 50.8572 32.438093 104.784251 32.438093 160.553213s-10.949136 109.696013-32.438093 160.553213c-20.772659 49.117618-50.550215 93.221145-88.411712 131.082642s-81.965024 67.639053-131.082642 88.411712C616.272609 793.466973 562.345558 804.31378 506.678925 804.31378zM724.536025 396.125912l-204.65674 0-0.920955 280.993704c-0.102328 16.884181-13.81433 30.596183-30.698511 30.596183 0 0-0.102328 0-0.102328 0-16.986509-0.102328-30.698511-13.81433-30.596183-30.800839l1.023284-310.873588c0-0.204657 0-0.409313 0-0.61397 0-16.884181 13.712002-30.698511 30.698511-30.698511l235.355251 0c16.884181 0 30.698511 13.712002 30.698511 30.698511S741.522534 396.125912 724.536025 396.125912z"  horiz-adv-x="1024" />

    
    <glyph glyph-name="shezhi" unicode="&#58991;" d="M509 546.5c-88.6 0-161.1-73.1-161.1-162.6 0-89.4 72.5-162.6 161.1-162.6s161.1 73.1 161.1 162.6S597.6 546.5 509 546.5zM380.1 810.7c16.1 0 34.2-6.1 44.3-16.3 12.1-14.2 54.4-50.8 86.6-50.8 32.2 0 74.5 36.6 86.6 48.8 10.1 12.2 28.2 18.3 44.3 18.3 10.1 0 16.1 0 24.2-4.1h2l110.7-63h2c22.1-16.3 30.2-46.7 20.1-71.1 0 0-10.1-22.4-10.1-42.7 0-61 48.3-109.7 108.7-109.7h4c20.1 0 36.2-18.3 42.3-46.7 2-2 10.1-50.8 10.1-89.4 0-40.6-10.1-89.4-10.1-89.4-4-28.4-22.1-46.7-42.3-46.7h-4c-60.4 0-108.7-48.8-108.7-109.7 0-20.3 10.1-42.7 10.1-42.7 10.1-24.4 2-52.8-20.1-69.1h-2l-110.7-63h-2c-6-2-14.1-4.1-22.1-4.1-18.1 0-36.2 8.1-46.3 20.3-12.1 14.2-56.4 52.8-88.6 52.8-30.2 0-70.5-36.6-86.6-52.8-10.1-12.2-26.2-20.3-44.3-20.3-10.1 0-16.1 0-24.2 4.1h-2l-108.7 61h-2c-22.3 16.2-30.3 46.7-20.3 71 0 0 10.1 22.4 10.1 42.7 0 61-48.3 109.7-108.7 109.7h-4c-20.1 0-36.2 18.3-42.3 46.7-2 2-10.1 50.8-10.1 89.4 0 36.6 8.1 85.3 10.1 89.4 4 28.4 22.1 46.7 42.3 46.7h2c60.4 0 108.7 48.8 108.7 109.7 0 20.3-10.1 42.7-10.1 42.7-10.1 24.4-2 52.8 20.1 69.1h2l114.8 65h2c6.1 2.2 14.2 4.2 22.2 4.2z"  horiz-adv-x="1024" />

    
    <glyph glyph-name="xiazai18" unicode="&#58919;" d="M856.954985 510.018112c-0.576121-51.994188-17.180288-99.533924-39.609113-145.413857-33.606399-68.75185-78.228689-130.188084-126.728286-188.95349-45.148269-54.706973-93.597725-106.356306-145.30948-154.923442-18.070564-16.966417-34.56012-17.48728-53.085032-0.859577-95.919607 86.087681-182.122921 180.470281-247.924579 292.121174-10.708899 18.169825-20.417005 36.901445-28.77844 56.283888-7.924483 18.371416-1.090844 37.588083 16.018835 45.521776 17.158798 7.957229 36.875862 0.977257 45.222971-17.178241 39.327704-85.524862 96.852862-158.196998 159.714562-227.119741 24.238031-26.575262 49.630351-52.033074 75.916017-76.598562 3.251044-3.035126 5.296633-5.501294 9.914814-0.850367 87.10894 87.772043 168.662351 179.933045 228.0356 289.487184 17.307178 31.93534 31.737842 65.306378 36.57194 101.670587 7.284917 54.81749-3.724835 106.969267-29.730115 155.072845-49.526997 91.616604-126.402875 143.862525-231.327576 147.546428-119.527281 4.194532-225.729068-72.993454-263.348873-186.984648-9.450233-28.636201-14.455223-57.984622-14.845103-88.142479-0.278339-21.561062-14.415314-36.784788-33.901111-36.734646-19.547195 0.047072-33.82027 15.626909-33.762965 36.842093 0.442068 160.357198 110.895693 299.273061 266.558985 335.243297C575.346235 875.812215 713.3094 822.290231 791.261797 712.443427 834.320475 651.769556 855.712691 584.135156 856.954985 510.018112zM136.976186-25.538397c254.766404 0 508.070504 0 761.591545 0-0.037862 4.378727-2.922563 7.237845-4.750187 10.443863-33.05279 58.048067-66.178235 116.059296-99.363032 174.032662-7.121188 12.438287-7.562233 24.825408 0.360204 36.855396 7.136537 10.840906 17.59882 16.087397 30.610158 15.196097 11.692297-0.806365 20.893866-6.54916 26.681686-16.642029 45.293579-79.001285 90.644463-157.970848 135.468344-237.237169 13.837146-24.473391-3.272533-50.588165-32.371268-50.595328-151.58644-0.050142-303.172881-0.023536-454.755228-0.023536-138.542356 0-277.091876 0.693802-415.621952-0.533143-31.091112-0.277316-50.15326 28.113291-33.062 56.870242 44.724621 75.246775 87.2389 151.807475 130.681318 227.818659 9.356089 16.367783 23.981181 23.556509 39.297005 19.578917 22.651906-5.892197 32.509415-29.940916 20.503986-51.17452-23.185049-41.015136-46.706765-81.84096-70.065775-122.756835C160.695401 16.175657 149.256884-3.965056 136.976186-25.538397zM653.782655 515.688251c0.008186-74.774007-61.005422-135.555325-135.90632-135.38648-74.259284 0.165776-134.827755 60.983933-134.825708 135.37727 0.004093 74.859965 60.867276 135.492904 135.870504 135.352711C593.176322 650.894629 653.776516 590.075449 653.782655 515.688251zM518.829034 583.348234c-37.586037-0.010233-68.025303-30.203906-68.087725-67.536162-0.062422-37.753859 30.839379-68.179822 68.88488-67.822688 36.531008 0.342808 66.62849 31.17707 66.470901 68.095911C585.939501 552.94376 555.526841 583.35642 518.829034 583.348234z"  horiz-adv-x="1024" />

    
    <glyph glyph-name="liwu" unicode="&#58897;" d="M1135.142452 534.41372c0 57.196057-46.96342 103.728338-104.689952 103.728338l-30.177676 0c17.059174 26.554471 26.182729 57.38756 26.182729 89.711715 0.003072 44.940856-17.691033 87.18735-49.821636 118.9585-32.078374 31.719945-74.707875 49.187728-120.035835 49.187728-43.922918 0-84.252328-19.345951-119.868909-57.499185-23.783302-25.479184-45.446753-59.392715-64.514154-100.969459-17.11345 5.294509-35.72411 8.054412-54.706511 8.054412-19.031558 0-37.644265-2.754783-54.716752-8.042123-19.069449 41.573671-40.729827 75.481058-64.511081 100.95717-35.615557 38.153234-75.943943 57.499185-119.864813 57.499185-77.72892 0-145.290745-52.34088-164.2967-127.28327-1.192033-4.699517-0.407585-9.682704 2.171056-13.788253 2.578641-4.105549 6.726177-6.977077 11.476898-7.944836 12.89218-2.625749 26.425436-6.186485 40.225978-10.582873 4.684155-1.493113 9.778968-0.972879 14.065779 1.435764 4.286811 2.408643 7.38159 6.48859 8.543924 11.265937 9.871136 40.558805 46.122648 68.885964 88.156133 68.885964 55.479694 0 97.333964-76.670018 119.09163-127.878262-3.066104-6.287869-5.029271-13.069347-5.858779-20.262505-0.098312-0.412705-0.183311-0.830531-0.252948-1.251429-0.247828-1.030227-0.650293-2.929901-0.650293-5.285292 0-8.050316 1.776784-15.914249 5.246377-23.433066-25.727012 0.641076-70.702687 10.009387-142.334217 49.166222C284.052714 727.309984 218.537007 746.713284 159.276399 746.713284c-96.788128 0-144.740812-51.962993-150.014839-58.040925-0.124938-0.142348-0.247828-0.287767-0.36867-0.434211-6.680093-8.138387-9.757462-18.377169-8.66579-28.832031 1.093721-10.46408 6.2254-19.853896 14.460051-26.446942 6.997559-5.595589 15.792383-8.677055 24.765398-8.677055 11.874242 0 23.001927 5.234088 30.541226 14.360715 1.476728 1.69793 27.368617 30.395806 87.911377 30.395806 45.805182 0 98.956111-16.367918 157.964795-48.641892 71.328402-39.079005 133.05705-58.892962 183.469581-58.892962 6.2254 0 12.604413 0.403489 19.568177 1.251429 2.877673-1.943709 6.318592-3.038454 9.925412-3.038454l49.222547 0 0-136.466222L178.781083 423.250539l0 111.231794c0 13.914215 11.567017 25.234428 25.785385 25.234428l144.292264 0c0.00512 0 0.011265 0.001024 0.017409 0 9.792281 0 17.730972 7.938691 17.730972 17.730972 0 7.363156-4.487531 13.677652-10.876785 16.357677-16.577855 7.68267-30.463396 14.64029-43.685331 21.891821-14.312583 7.804536-28.696852 14.717096-43.974122 21.130928-2.173104 0.912458-4.505965 1.382512-6.863404 1.382512L204.566468 638.210671c-57.72858 0-104.694048-46.532281-104.694048-103.728338l0-171.927142c0-9.792281 7.938691-17.730972 17.730972-17.730972l47.506184 0 0-369.091784c0-57.198105 46.966492-103.732434 104.695072-103.732434l695.545875 0c57.729604 0 104.695072 46.533305 104.695072 103.732434L1070.045595 344.612234l47.714073 0c4.708733 0 9.223915 1.873048 12.550137 5.205414 3.326221 3.332366 5.190052 7.852668 5.180836 12.561401L1135.142452 534.41372zM991.000729 344.758677l0-369.094857c0-13.915239-11.53527-25.234428-25.715747-25.234428L656.963304-49.570607 656.963304 344.758677 991.000729 344.758677zM1056.309571 534.41372l0-111.231794L657.03499 423.181926l0 136.465198 373.488173 0C1044.74153 559.647123 1056.309571 548.32691 1056.309571 534.41372zM652.285293 663.329378c-8.512177-2.07172-20.320878-3.739951-34.773761-3.739951-5.044633 0-10.108723 0.226322-15.126729 0.674871-1.922204 2.101418-4.027718 3.939647-6.311423 5.506494 6.261243 0.809026 13.444161 1.321067 21.438152 1.321067C631.962367 667.090834 643.773115 665.413386 652.285293 663.329378zM856.257015 817.987409c50.15139 0 90.953927-40.247484 90.953927-89.717859 0-49.468327-40.802537-89.713763-90.953927-89.713763L738.192539 638.555787c3.771698 7.893631 5.729744 16.221474 5.729744 24.753109 0 9.199337-2.292922 18.360783-6.695454 26.944647C759.002929 741.460762 800.831597 817.987409 856.257015 817.987409zM578.125302 344.758677l0-394.330309L269.804648-49.571631c-14.179453 0-25.715747 11.320213-25.715747 25.234428L244.088901 344.758677 578.125302 344.758677z"  horiz-adv-x="1137" />

    
    <glyph glyph-name="phpkaifa" unicode="&#59006;" d="M365.789184 580.769792M832.292864 521.648128l-21.512192 0-8.835072-45.45536 20.103168 0c0 0 24.457216-0.641024 25.61024 29.45024C848.809984 522.928128 832.292864 521.648128 832.292864 521.648128zM808.7552 620.034048L594.432 664.576c0 0 9.703424-41.621504 9.740288-75.913216 0 0 0.393216-28.051456 0.720896-61.935616l2.28352 11.696128c0 0 29.835264-0.385024 49.42848 0 19.591168 0.385024 38.856704-13.459456 29.835264-44.816384-10.756096-37.390336-49.043456-34.318336-49.043456-34.318336l-21.768192 0.172032-6.148096-28.60032-4.255744 0c-0.12288-11.476992-0.364544-19.245056-0.77824-20.781056-2.121728-7.862272-2.648064-41.40032-77.84448-43.102208s-78.102528 43.37664-77.828096 48.277504l-0.280576 72.38656c0 0 1.009664 10.113024 11.362304 10.776576 10.348544 0.669696 11.360256-11.341824 11.360256-11.341824l0.657408-71.909376c0 0 4.411392-27.500544 55.832576-27.357184 51.423232 0.139264 51.843072 19.95776 53.481472 25.483264s0.561152 199.13728 0.561152 199.13728 2.883584 66.224128-72.577024 83.982336c0 0-9.037824 4.958208-35.616768 4.947968l-110.592-1.964032c0 0-114.581504-3.446784-132.212736-140.498944 0 0-3.166208-24.829952-3.201024-42.51648-0.034816-17.682432-0.256-309.11488-0.256-309.11488s-1.23904-20.412416-24.567808-25.667584c0 0-25.874432-3.432448-32.067584 25.790464l-0.571392 84.527104c0 0-2.56 32.014336-35.885056 34.803712 0 0-30.887936 0.018432-36.255744-34.813952l1.148928-90.066944c0 0 6.176768-54.76352 60.65152-79.110144 54.478848-24.346624 101.081088 6.545408 107.866112 12.109824 6.77888 5.564416 34.033664 25.554944 39.809024 64.768 0 0 1.511424 2.174976 1.511424 35.34848l0.415744 54.075392c0 0 5.410816 27.564032 35.043328 28.489728 29.630464 0.925696 35.043328-28.506112 35.043328-28.506112l0-201.140224c0 0 6.350848-26.646528 30.599168-21.338112l139.425792 12.1344c0 0 20.39808 4.298752 20.39808 24.168448l0 140.679168c0 0 4.110336 12.68736 16.379904 12.68736 12.26752 0 128.86016-0.17408 128.86016-0.17408s9.652224-1.181696 13.983744-12.51328c4.333568-11.329536-0.446464 0-0.446464 0l0.628736-133.349376c0 0 1.875968-23.334912 31.213568-22.534144l115.982336-15.910912 26.257408-3.602432c0 0 24.092672 2.768896 24.567808 24.530944L927.285248 493.131776C927.289344 493.131776 922.79808 595.408896 808.7552 620.034048zM365.789184 580.769792l-9.818112-11.270144c-11.4176 9.981952-24.342528 1.927168-24.342528 1.927168-13.641728-8.548352-6.572032-24.03328-6.572032-24.03328l-11.266048-3.545088c-6.324224-1.601536-10.907648 2.738176-10.907648 2.738176-4.796416 18.034688 7.24992 34.185216 7.24992 34.185216 19.597312 21.254144 46.995456 12.652544 46.995456 12.652544C370.640896 589.1788799999999 365.789184 580.769792 365.789184 580.769792zM742.144 459.288576c0 0 5.593088 24.999936 8.044544 42.35264 1.005568 7.143424 5.402624 19.24096-6.244352 19.267584-9.752576 0.026624-24.338432 0.100352-24.338432 0.100352l-12.294144-61.720576-23.048192 0 21.512192 108.075008 23.6032 0-5.931008-28.932096 24.332288 0c0 0 32.268288 2.551808 28.42624-24.082432-3.842048-26.63424-11.014144-55.062528-11.014144-55.062528L742.144 459.286528zM870.068224 493.606912c-10.756096-37.390336-49.043456-34.318336-49.043456-34.318336l-21.768192 0.172032-6.146048-28.60032L769.80224 430.860288l21.00224 107.563008c0 0 29.835264-0.385024 49.42848 0C859.824128 538.80832 879.089664 524.96384 870.068224 493.606912zM664.031232 505.643008c1.153024 17.28512-15.366144 16.00512-15.366144 16.00512l-21.51424 0-8.835072-45.45536 20.103168 0C638.420992 476.192768 662.880256 475.551744 664.031232 505.643008z"  horiz-adv-x="1024" />

    
    <glyph glyph-name="fujian" unicode="&#58992;" d="M902.656 389.079c-1.044-1.004-2.13-2.068-3.256-3.256l-371.241-371.343c-0.942-0.655-1.802-1.475-2.642-2.314-92.57-89.682-241.684-88.617-332.8 2.519-91.279 91.238-92.18 240.62-2.048 333.107 6.349 6.431 421.356 421.765 425.513 425.923 65.004 64.922 170.701 64.922 235.643 0 31.293-31.355 48.62-73.052 48.62-117.453-0.082-44.564-17.49-86.446-49.070-117.924l-427.233-427.151c-36.065-32.748-91.156-31.355-125.747 3.215-34.591 34.529-35.717 89.825-2.683 125.891 0.635 0.594 1.188 1.311 1.679 2.068l0.143 0.061c0.164 0.164 0.307 0.307 0.43 0.451l1.085 1.106c0.082 0.061 0.205 0.102 0.307 0.266l371.425 371.446c9.81 9.83 9.81 25.743 0 35.594-9.81 9.83-25.784 9.83-35.615 0l-372.879-372.838c-0.287-0.307-0.635-0.635-0.963-0.983l-4.178-4.116c-1.659-1.638-3.011-3.523-4.116-5.489-45.65-55.972-42.004-137.523 9.646-189.153 53.924-53.821 139.899-55.726 195.953-4.28 0.225 0.225 0.492 0.451 0.758 0.696l427.54 427.54c41.124 40.98 63.775 95.539 63.775 153.58 0.041 57.856-22.385 112.23-63.304 153.068-84.562 84.541-222.29 84.541-306.913 0l-425.349-425.718c-0.164-0.225-0.348-0.389-0.492-0.553v0c-109.404-112.067-108.319-293.315 2.396-403.948 55.808-55.828 129.516-83.763 203.264-83.763 71.352 0 142.848 26.173 198.124 78.643 0.43 0.307 0.819 0.696 1.208 1.004 0.43 0.369 0.717 0.696 1.147 1.065l2.683 2.58c0.102 0.164 0.184 0.164 0.307 0.328l371.405 371.446c0.041 0.061 0.184 0.266 0.225 0.328 0.635 0.512 1.188 1.208 1.925 1.843 10.015 9.544 10.486 25.416 1.004 35.533-9.646 10.056-25.58 10.527-35.676 0.983v0 0zM902.656 389.079z"  horiz-adv-x="1024" />

    
    <glyph glyph-name="linux" unicode="&#59237;" d="M452.32912 661.152q-6.272-0.576-8.864-6.016t-4.864-5.44q-2.848-0.576-2.848 2.848 0 6.848 10.848 8.576l5.728 0zM502.05712 653.152q-2.272-0.576-6.56 3.712t-10.016 2.56q13.728 6.272 18.272-1.152 1.728-3.424-1.728-5.152zM301.48112 409.152q-2.272 0.576-3.424-1.728t-2.56-7.136-3.136-7.712-5.728-7.424q-4-5.728-0.576-6.848 2.272-0.576 7.136 4t7.136 10.272q0.576 1.728 1.152 4t1.152 3.424 0.864 2.56 0.288 2.272l0 1.728t-0.576 1.44-1.728 1.152zM790.05712 204q0 10.272-31.424 24 2.272 8.576 4.288 15.712t2.848 14.848 1.728 12.288 0.288 12.864-0.576 11.136-2.016 12.576-2.272 11.712-2.848 14.272-3.136 15.136q-5.728 27.424-26.848 58.848t-41.152 42.848q13.728-11.424 32.576-47.424 49.728-92.576 30.848-158.848-6.272-22.848-28.576-24-17.728-2.272-22.016 10.56t-4.576 47.712-6.56 61.152q-5.152 22.272-11.136 39.424t-11.136 26.016-8.864 14.016-7.424 8.576-4.288 4q-8 35.424-17.728 58.848t-16.864 32-13.44 18.848-8.576 22.848q-2.272 12 3.424 30.56t2.56 28.288-25.44 14.272q-8.576 1.728-25.44 10.272t-20.288 9.152q-4.576 0.576-6.272 14.848t4.576 29.152 20.576 15.424q21.152 1.728 29.152-17.152t2.272-33.152q-6.272-10.848-1.152-15.136t17.152-0.288q7.424 2.272 7.424 20.576l0 21.152q-2.848 17.152-7.712 28.576t-12 17.44-13.44 8.576-15.424 4.288q-61.152-4.576-50.848-76.576 0-8.576-0.576-8.576-5.152 5.152-16.864 6.016t-18.848-0.288-8.864 2.848q0.576 32.576-9.152 51.424t-25.728 19.424q-15.424 0.576-23.712-15.712t-9.44-34.016q-0.576-8.576 2.016-21.152t7.424-21.44 8.864-7.712q5.728 1.728 9.152 8 2.272 5.152-4 4.576-4 0-8.864 8.288t-5.44 19.136q-0.576 12.576 5.152 21.152t19.424 8q9.728 0 15.424-12t5.44-22.272-0.864-12.576q-12.576-8.576-17.728-16.576-4.576-6.848-15.712-13.44t-11.712-7.136q-7.424-8-8.864-15.424t4.288-10.272q8-4.576 14.272-11.136t9.152-10.848 10.56-7.424 20.288-3.712q26.848-1.152 58.272 8.576 1.152 0.576 13.152 4t19.712 6.016 16.864 7.424 12 10.016q5.152 8 11.424 4.576 2.848-1.728 3.712-4.864t-1.728-6.848-9.44-5.44q-11.424-3.424-32.288-12.288t-26.016-11.136q-25.152-10.848-40-13.152-14.272-2.848-45.152 1.152-5.728 1.152-5.152-1.152t9.728-10.848q14.272-13.152 38.272-12.576 9.728 0.576 20.576 4t20.576 8 19.136 10.016 17.152 9.728 14.016 6.848 10.016 1.44 4.864-6.272q0-1.152-0.576-2.56t-2.272-2.848-3.424-2.56-4.864-2.848-5.152-2.56-5.728-2.848-5.44-2.56q-16-8-38.56-25.152t-38.016-24.576-28-0.576q-12 6.272-36 41.728-12.576 17.728-14.272 12.576-0.576-1.728-0.576-5.728 0-14.272-8.576-32.288t-16.864-31.712-12-33.152 6.56-36q-13.152-3.424-35.712-51.424t-27.136-80.576q-1.152-10.272-0.864-39.424t-3.136-33.728q-4.576-13.728-16.576-1.728-18.272 17.728-20.576 53.728-1.152 16 2.272 32 2.272 10.848-0.576 10.272l-2.272-2.848q-20.576-37.152 5.728-94.848 2.848-6.848 14.272-16t13.728-11.424q11.424-13.152 59.424-51.712t53.152-43.712q9.152-8.576 10.016-21.728t-8-24.576-26.016-13.152q4.576-8.576 16.576-25.44t16-30.848 4-40.288q26.272 13.728 4 52.576-2.272 4.576-6.016 9.152t-5.44 6.848-1.152 3.424q1.728 2.848 7.424 5.44t11.424-1.44q26.272-29.728 94.848-20.576 76 8.576 101.152 49.728 13.152 21.728 19.424 17.152 6.848-3.424 5.728-29.728-0.576-14.272-13.152-52.576-5.152-13.152-3.424-21.44t13.728-8.864q1.728 10.848 8.288 44t7.712 51.424q1.152 12-3.712 42.016t-4.288 55.424 13.152 40.288q8.576 10.272 29.152 10.272 0.576 21.152 19.712 30.272t41.44 6.016 34.272-12.864zM431.20912 676.576q1.728 9.728-1.44 17.152t-6.56 8.576q-5.152 1.152-5.152-4 1.152-2.848 2.848-3.424 5.728 0 4-8.576-1.728-11.424 4.576-11.424 1.728 0 1.728 1.728zM670.63312 564q-1.152 4.576-3.712 6.56t-7.424 2.848-8.288 3.136q-2.848 1.728-5.44 4.576t-4 4.576-3.136 3.712-2.272 2.272-2.272-0.864q-8-9.152 4-24.864t22.272-18.016q5.152-0.576 8.288 4.576t2.016 11.424zM568.90512 685.7280000000001q0 6.272-2.848 11.136t-6.272 7.136-5.152 1.728q-8-0.576-4-4l2.272-1.152q8-2.272 10.272-17.728 0-1.728 4.576 1.152zM599.75312 818.848q0 1.152-1.44 2.848t-5.152 4-5.44 3.424q-8.576 8.576-13.728 8.576-5.152-0.576-6.56-4.288t-0.576-7.424-0.288-7.136q-0.576-2.272-3.424-6.016t-3.424-5.152 1.728-4.864q2.272-1.728 4.576 0t6.272 5.152 8.576 5.152q0.576 0.576 5.152 0.576t8.576 1.152 5.152 4zM922.63312 52.57600000000002q11.424-6.848 17.728-14.016t6.848-13.728-1.44-12.864-8.864-12.576-13.44-11.136-17.152-10.56-18.016-9.44-18.272-8.864-15.424-7.424q-21.728-10.848-48.864-32t-43.136-36.576q-9.728-9.152-38.848-11.136t-50.848 8.288q-10.272 5.152-16.864 13.44t-9.44 14.56-12.576 11.136-26.848 5.44q-25.152 0.576-74.272 0.576-10.848 0-32.576-0.864t-33.152-1.44q-25.152-0.576-45.44-8.576t-30.56-17.152-24.864-16.288-30.56-6.56q-16.576 0.576-63.424 17.728t-83.424 24.576q-10.848 2.272-29.152 5.44t-28.576 5.152-22.56 5.44-19.136 8.288-9.728 11.136q-5.728 13.152 4 38.016t10.272 31.136q0.576 9.152-2.272 22.848t-5.728 24.288-2.56 20.864 6.016 15.424q8 6.848 32.576 8t34.272 6.848q17.152 10.272 24 20t6.848 29.152q12-41.728-18.272-60.576-18.272-11.424-47.424-8.576-19.424 1.728-24.576-5.728-7.424-8.576 2.848-32.576 1.152-3.424 4.576-10.272t4.864-10.272 2.56-9.728 0.576-12.576q0-8.576-9.728-28t-8-27.424q1.728-9.728 21.152-14.848 11.424-3.424 48.288-10.56t56.864-11.712q13.728-3.424 42.272-12.576t47.136-13.152 31.712-2.272q24.576 3.424 36.864 16t13.152 27.424-4.288 33.44-10.848 29.728-11.424 20.864q-69.152 108.576-96.576 138.272-38.848 42.272-64.576 22.848-6.272-5.152-8.576 8.576-1.728 9.152-1.152 21.728 0.576 16.576 5.728 29.728t13.728 26.848 12.576 24q4.576 12 15.136 41.152t16.864 44.576 17.152 34.848 22.272 30.848q62.848 81.728 70.848 111.424-6.848 64-9.152 177.152-1.152 51.424 13.728 86.56t60.576 59.712q22.272 12 59.424 12 30.272 0.576 60.576-7.712t50.848-23.712q32.576-24 52.288-69.44t16.864-84.288q-2.848-54.272 17.152-122.272 19.424-64.576 76-124.576 31.424-33.728 56.864-93.152t34.016-109.152q4.576-28 2.848-48.288t-6.848-31.712-11.424-12.576q-5.728-1.152-13.44-10.848t-15.424-20.288-23.136-19.136-34.848-8q-10.272 0.576-18.016 2.848t-12.864 7.712-7.712 8.864-6.56 11.712-5.152 11.136q-12.576 21.152-23.424 17.152t-16-28 4-55.424q11.424-40 0.576-111.424-5.728-37.152 10.272-57.44t41.728-18.848 48.576 20.288q33.728 28 51.136 38.016t59.136 24.288q30.272 10.272 44 20.864t10.56 19.712-14.272 16.288-29.44 13.44q-18.848 6.272-28.288 27.424t-8.576 41.44 8.864 27.136q0.576-17.728 4.576-32.288t8.288-23.136 11.712-16.288 12-10.848 12.288-7.424 9.44-5.44z"  horiz-adv-x="1024" />

    
    <glyph glyph-name="wenhao" unicode="&#59008;" d="M502.757-64.219c-60.5 0-119.201 11.854-174.474 35.231-53.377 22.576-101.31 54.894-142.466 96.05-41.156 41.153-73.472 89.088-96.049 142.465C66.39 264.799 54.537 323.5 54.537 384S66.39 503.201 89.768 558.474c22.576 53.376 54.893 101.309 96.049 142.465 41.156 41.157 89.089 73.473 142.466 96.049 55.271 23.378 113.973 35.231 174.474 35.231 60.499 0 119.2-11.853 174.474-35.231 53.377-22.577 101.31-54.893 142.466-96.05 41.157-41.155 73.472-89.088 96.048-142.465 23.379-55.27 35.231-113.972 35.231-174.474s-11.854-119.204-35.232-174.473c-22.577-53.38-54.892-101.312-96.047-142.466-41.156-41.155-89.09-73.473-142.465-96.049C621.956-52.365 563.256-64.219 502.757-64.219zM502.757 801.52c-56.369 0-111.047-11.038-162.515-32.806-49.717-21.029-94.369-51.136-132.716-89.482-38.348-38.348-68.453-83-89.482-132.717C96.275 495.048 85.237 440.37 85.237 384c0-56.368 11.038-111.047 32.807-162.512 21.03-49.722 51.135-94.373 89.482-132.717 38.347-38.351 82.999-68.455 132.716-89.482 51.469-21.77 106.146-32.809 162.515-32.809s111.046 11.036 162.516 32.809c49.717 21.029 94.368 51.135 132.715 89.482 38.348 38.344 68.453 82.996 89.48 132.715 21.771 51.465 32.809 106.145 32.809 162.514 0 56.371-11.037 111.049-32.809 162.515-21.028 49.718-51.135 94.371-89.48 132.718-38.348 38.347-82.999 68.453-132.717 89.482C613.804 790.482 559.125 801.52 502.757 801.52zM446.479 176.706l0-74.638 89.476 0 0 74.638L446.479 176.706zM677.814 434.852c13.094 19.66 19.645 41.14 19.645 64.442 0 40.29-18.628 74.642-55.87 103.039-37.253 28.397-87.159 42.599-149.72 42.599-59.074 0-106.578-13.231-142.51-39.685-35.942-26.461-57.545-64.57-64.816-114.325l80.75-8.01c6.979 37.134 21.674 64.443 44.081 81.917 22.407 17.479 50.34 26.216 83.806 26.216 34.628 0 63.873-9.647 87.736-28.943 23.858-19.299 35.795-41.69 35.795-67.178 0-14.08-4.082-27.068-12.226-38.956-8.149-11.897-25.823-27.854-53.032-47.879-27.21-20.024-46.045-35.258-56.526-45.695-14.259-14.323-24.589-28.523-30.986-42.596-8.733-18.695-13.093-40.905-13.093-66.63 0-4.371 0.14-10.923 0.436-19.663l75.509 0c0.578 26.216 2.761 45.153 6.55 56.798 3.775 11.651 9.602 21.969 17.456 30.951 7.859 8.975 24.59 22.938 50.198 41.868C639.109 391.278 664.72 415.186 677.814 434.852L677.814 434.852z"  horiz-adv-x="1024" />

    
    <glyph glyph-name="zuobiao" unicode="&#58996;" d="M512 896C290.6752 896 110.5984 714.8608 110.5984 492.2304c0-86.5408 27.2-169.3184 78.1568-238.7264l240.9472-344.5632c17.7344-23.456 44.7488-36.9344 74.0864-36.9344 29.4976 0 56.576 13.568 74.3168 37.2736l256.6592 343.5648c51.4368 70.0736 78.6368 152.8448 78.6368 239.3856C913.4016 714.8608 733.3248 896 512 896L512 896zM796.4608 285.8816l-273.6384-366.2848c-6.432-8.5824-15.0208-9.8688-19.584-9.8688-4.5376 0-13.1008 1.2864-18.752 8.7104L227.712 285.6384c-45.4144 61.856-69.4336 134.9376-69.4336 211.3152C158.2784 693.408 316.9664 853.248 512 853.248c195.0272 0 353.7216-159.8464 353.7216-356.2944C865.7216 420.576 841.7088 347.4944 796.4608 285.8816L796.4608 285.8816zM778.624 294.3872M512 680.5248c-103.3152 0-187.3536-84.4672-187.3536-188.2944 0-103.8528 84.0448-188.32 187.3536-188.32 103.3088 0 187.3536 84.4672 187.3536 188.32C699.3536 596.0512 615.3152 680.5248 512 680.5248L512 680.5248zM512 348.2624c-78.7072 0-142.7264 64.5696-142.7264 143.968 0 79.3664 64.0192 143.936 142.7264 143.936 78.7008 0 142.72-64.576 142.72-143.936C654.72 412.832 590.7008 348.2624 512 348.2624L512 348.2624zM512 376.6016"  horiz-adv-x="1024" />

    
    <glyph glyph-name="expand" unicode="&#59099;" d="M504.571429 292.571429q0-7.428571-5.714286-13.142857l-189.714286-189.714286 82.285714-82.285714q10.857143-10.857143 10.857143-25.714286t-10.857143-25.714286-25.714286-10.857143l-256 0q-14.857143 0-25.714286 10.857143t-10.857143 25.714286l0 256q0 14.857143 10.857143 25.714286t25.714286 10.857143 25.714286-10.857143l82.285714-82.285714 189.714286 189.714286q5.714286 5.714286 13.142857 5.714286t13.142857-5.714286l65.142857-65.142857q5.714286-5.714286 5.714286-13.142857zm446.285714 493.714286l0-256q0-14.857143-10.857143-25.714286t-25.714286-10.857143-25.714286 10.857143l-82.285714 82.285714-189.714286-189.714286q-5.714286-5.714286-13.142857-5.714286t-13.142857 5.714286l-65.142857 65.142857q-5.714286 5.714286-5.714286 13.142857t5.714286 13.142857l189.714286 189.714286-82.285714 82.285714q-10.857143 10.857143-10.857143 25.714286t10.857143 25.714286 25.714286 10.857143l256 0q14.857143 0 25.714286-10.857143t10.857143-25.714286z"  horiz-adv-x="1024" />

    
    <glyph glyph-name="zhongzhi1" unicode="&#58889;" d="M511.99872 892.544C229.93792 892.544 1.28 664.86016 1.28 384.00256 1.28 103.13984 229.93792-124.544 511.99872-124.544 794.06592-124.544 1022.72 103.13984 1022.72 384.00256 1022.72 664.86016 794.06592 892.544 511.99872 892.544L511.99872 892.544zM520.3072 23.71968c-188.20096 0-341.3312 152.47616-341.3312 339.87584 0 187.3984 153.13024 339.87456 341.3312 339.87456l0.02816 0L520.33536 777.35552l178.08384-118.21696-178.08384-118.21952L520.33536 614.8096l-0.02816 0c-139.10784 0-252.28544-112.69376-252.28544-251.21536 0-138.5152 113.1776-251.21152 252.28544-251.21152s252.28672 112.69632 252.28672 251.21152c0 24.50432 19.91168 44.33152 44.52224 44.33152 24.60928 0 44.52224-19.8272 44.52224-44.33152C861.63712 176.19584 708.50304 23.71968 520.3072 23.71968L520.3072 23.71968zM520.3072 23.71968"  horiz-adv-x="1024" />

    
    <glyph glyph-name="liulan" unicode="&#59079;" d="M510.557 691.646c-302.839 0-458.323-306.151-458.323-306.151s117.33-306.19 458.323-306.19c308.802 0 458.301 304.995 458.301 304.995s-150.691 307.345-458.301 307.345v0 0zM511.246 194.134c-110.73 0-190.773 83.726-190.773 191.364 0 107.648 80.049 191.352 190.773 191.352 110.724 0 190.764-83.697 190.764-191.352 0.001-107.639-80.039-191.364-190.764-191.364v0 0zM511.246 500.324c-63.286-0.145-114.461-53.321-114.461-114.827 0-61.473 51.176-114.821 114.461-114.821 63.282 0 114.454 53.352 114.454 114.821 0.004 61.527-51.17 114.946-114.454 114.827v0 0z"  horiz-adv-x="1024" />

    
    <glyph glyph-name="luyou" unicode="&#58999;" d="M886.833275 492.158329l23.553517 0C903.017286 492.66408 894.997531 492.447329 886.833275 492.158329zM110.723206 492.158329l30.056022 0C130.519721 492.59183 119.898963 493.02533 110.723206 492.158329zM926.281803 489.629577c-3.757003 1.083751-7.947506 1.806251-12.354759 2.239752-1.156001 0.07225-2.312002 0.21675-3.540253 0.289l-23.553517 0c-8.164256-0.21675-16.545262-0.65025-24.557793-0.65025-21.530516 0-42.627531-0.722501-61.629295 0.65025-1.156001 0.07225-2.246977 0.1445-3.323502 0.21675l0 192.040641c0 42.266281 5.129754 79.980809-30.207747 84.171312l-9.175757 0c-34.896776-4.768503-30.128272-42.049531-30.128272-82.29281l0-194.786143c-137.491851 0.578-277.295703-1.083751-413.703803 0.65025-5.996754 0.07225-11.993509 0.1445-17.990263 0.21675l0 192.040641c0 42.194031 5.491004 80.269809-30.128272 84.171312l-8.236506 0c-36.269527-4.624003-31.139773-43.566782-31.139773-86.844564l0-190.234389-65.819798 0c-6.141254 0-13.00501 0.36125-20.013265 0.65025l-30.056022 0c-5.996754-0.50575-11.415508-1.517251-15.750512-3.395752-15.606011-6.719255-28.394271-19.724264-32.946024-35.691526-1.734001-6.141254-2.456502-13.00501-2.601002-20.085515-0.07225-1.300501-0.07225-2.601002-0.07225-3.901503 0-10.476258 0.867001-21.169266 0.867001-30.850773l0-113.439808c0-11.119283-0.867001-22.823792-0.867001-33.87805 0-4.053228 0.07225-8.019756 0.4335-11.849009 0.289-3.179002 0.65025-6.285755 1.300501-9.182982 4.335003-20.808015 22.831017-40.31553 46.673534-42.988781 2.890002-0.36125 5.852254-0.578 8.742256-0.787526 8.092006-0.578 16.328512-0.794751 24.637268-0.794751 22.758767 0 46.167784 1.589501 68.998801 1.589501l614.6312 0c20.519015 0 42.844281-1.589501 62.785296-1.589501 3.460778 0 6.85653 0.07225 10.107782 0.1445 10.042757 0.368475 19.146264 1.307726 26.73252 3.330727 21.602766 5.700529 35.684301 23.763042 40.243279 46.594059l0 207.646652C958.794327 466.14831 948.67932 483.127073 926.281803 489.629577zM913.421294 247.3029c-15.172511-10.042757-67.8428-4.551753-96.880096-4.551753l-657.547732 0c-19.146264 0-39.665279-1.878501-48.479786 4.551753-6.141254 4.479503-9.175757 13.51076-10.548508 24.709518-2.167502 17.340013-0.4335 39.809779-0.4335 58.522543l0 46.601284c0 11.054258-0.289 20.880265 0.4335 29.189021 1.445001 16.184012 6.647005 26.73252 25.143018 29.405772 28.105271 3.973753 68.1318 0.867001 100.644324 0.867001l597.146687 0c25.721019 0 79.908559 4.190503 92.407818-6.430255 4.768503-4.046003 7.369505-11.776759 8.742256-21.602766l0-138.142101C922.452551 259.729909 919.273548 251.204403 913.421294 247.3029zM964.668257 145.791576c0-2.442052 0-4.884104 0-7.326155-5.541579-26.479644-21.053665-42.959881-47.554985-48.472561-269.781698 0-539.58507 0-809.359543 0-28.285896 6.170155-45.864334 23.033317-47.56221 55.798716C361.698215 145.791576 663.168786 145.791576 964.668257 145.791576zM634.82509 363.191985l0-63.724547c0-2.239752-1.806251-4.046003-4.046003-4.046003l-82.07606 0c-2.246977 0-4.118253 1.806251-4.118253 4.046003l0 63.724547c0 2.239752 1.878501 4.046003 4.118253 4.046003l82.07606 0C633.018839 367.237988 634.82509 365.431736 634.82509 363.191985zM759.167431 363.191985l0-63.724547c0-2.239752-1.806251-4.046003-4.046003-4.046003l-82.07606 0c-2.239752 0-4.046003 1.806251-4.046003 4.046003l0 63.724547c0 2.239752 1.806251 4.046003 4.046003 4.046003l82.07606 0C757.36118 367.237988 759.167431 365.431736 759.167431 363.191985zM884.449023 363.191985l0-63.724547c0-2.239752-1.806251-4.046003-4.046003-4.046003l-82.07606 0c-2.239752 0-4.046003 1.806251-4.046003 4.046003l0 63.724547c0 2.239752 1.806251 4.046003 4.046003 4.046003l82.07606 0C882.642771 367.237988 884.449023 365.431736 884.449023 363.191985zM226.612291 492.158329l0-0.65025-65.819798 0c-6.141254 0-13.00501 0.36125-20.013265 0.65025L226.612291 492.158329zM727.810908 492.158329l0-0.65025c-137.491851 0.578-277.295703-1.083751-413.703803 0.65025L727.810908 492.158329zM886.833275 492.158329c-8.164256-0.21675-16.545262-0.65025-24.557793-0.65025-21.530516 0-42.627531-0.722501-61.629295 0.65025L886.833275 492.158329zM913.927044 492.158329l0-0.289c-1.156001 0.07225-2.312002 0.21675-3.540253 0.289L913.927044 492.158329zM141.140478 185.312354l-24.637268 0 0 0.794751C124.595216 185.529105 132.831722 185.312354 141.140478 185.312354zM887.555775 185.312354 141.140478 185.312354c22.758767 0 46.167784 1.589501 68.998801 1.589501l614.6312 0C845.289494 186.901856 867.61476 185.312354 887.555775 185.312354zM897.670782 185.456855l0-0.1445-10.107782 0C891.023778 185.312354 894.41953 185.384605 897.670782 185.456855zM59.425669 432.985536c-0.07225-1.300501-0.07225-2.601002-0.07225-3.901503l0 3.901503L59.425669 432.985536zM59.786919 239.066394l-0.4335 0 0 11.849009C59.353418 246.8694 59.425669 242.895647 59.786919 239.066394zM60.220419 398.23326l0-113.439808c0-11.119283-0.867001-22.823792-0.867001-33.87805l0 178.16863C59.353418 418.607775 60.220419 407.914768 60.220419 398.23326zM99.957948 406.325266l0-134.312848c-2.167502 17.340013-0.4335 39.809779-0.4335 58.522543l0 46.601284C99.524448 388.190503 99.235448 398.01651 99.957948 406.325266z"  horiz-adv-x="1024" />

    
    <glyph glyph-name="dianzan1" unicode="&#58937;" d="M281.504 528.246v0c0 0 31.971 1.032 31.971-31.971v-446.554c0 0 0-18.563-22.688-18.563h-109.317c0 0-26.814 0-26.814 26.814l-25.782 444.491c0 0 0 25.782 26.813 25.782h125.818zM841.501 528.246v0c0 0 53.628 5.156 53.628-50.533 0 0 0-102.099-78.379-368.174 0 0-24.751-78.379-54.659-78.379h-315.578c-22.688 0-78.379 15.47-78.379 56.722v440.365c0 0 155.726 92.817 155.726 240.293 5.156 7.219-7.219 53.627 51.565 53.627 0 0 137.163 8.249 55.69-293.921h210.385zM571.3 782.976c14.438-4.125 26.814-19.596 31.971-30.939 30.939-62.909 7.219-150.571-9.282-213.479l-6.188-21.657c-6.187-23.72 0-26.814 25.782-26.814h208.323c26.814 0 34.033-9.282 31.971-38.159-2.063-18.563-5.156-28.878-8.249-44.347-16.501-88.692-41.252-201.104-67.034-286.702-15.47-49.503-36.096-50.534-81.472-50.534h-242.356c-38.159 0-48.471 26.813-48.471 56.722v382.612c88.692 44.347 154.695 157.789 156.758 252.669 1.032 5.156 1.032 9.282 2.063 15.47 0 1.032 0 3.094 0 4.125 2.063 1.032 4.125 1.032 6.188 1.032zM169.093 489.056h105.193v-418.708h-81.472l-23.72 418.708z"  horiz-adv-x="1024" />

    
    <glyph glyph-name="fuzhi" unicode="&#59023;" d="M715.436342 115.85796c-21.404496 0-38.724976-17.3389-38.724976-38.724976l0-30.31033c0-18.379603-14.938224-33.335223-33.316803-33.335223L176.316681 13.487432c-18.379603 0-33.354666 14.956643-33.354666 33.335223L142.962016 513.901559c0 18.379603 14.976086 33.316803 33.354666 33.316803l26.888394 0c21.404496 0 38.724976 17.3389 38.724976 38.724976s-17.320481 38.724976-38.724976 38.724976l-26.888394 0c-61.112869 0-110.803595-49.691749-110.803595-110.765733l0-467.078905c0-61.093427 49.691749-110.785176 110.803595-110.785176l467.078905 0c61.075007 0 110.765733 49.691749 110.765733 110.785176l0 30.31033C754.161319 98.51906 736.840838 115.85796 715.436342 115.85796zM842.313008 831.962521 386.012587 831.962521c-64.062038 0-116.173906-52.111868-116.173906-116.173906l0-456.282001c0-64.062038 52.111868-116.173906 116.173906-116.173906l456.30042 0c64.062038 0 116.173906 52.111868 116.173906 116.173906l0 456.282001C958.486914 779.850653 906.375046 831.962521 842.313008 831.962521zM881.037984 259.506615c0-21.348214-17.358343-38.724976-38.724976-38.724976L386.012587 220.781638c-21.366633 0-38.724976 17.376763-38.724976 38.724976l0 456.282001c0 21.348214 17.358343 38.724976 38.724976 38.724976l456.30042 0c21.366633 0 38.724976-17.376763 38.724976-38.724976L881.037984 259.506615z"  horiz-adv-x="1024" />

    
    <glyph glyph-name="dianzan11" unicode="&#58989;" d="M890.908 466.466c-20.66 26.05-51.585 40.99-84.84 40.99l-189.34 0c10.34 28.83 17.18 60.165 19.615 90.48 3.785 47.147-3.465 89.02-20.955 121.095-21.53 39.46-58.18 64.072-105.997 71.177-21.662 3.22-40.292-0.945-55.377-12.372-30.495-23.102-36.092-67.065-42.575-117.97-5.182-40.692-11.055-86.817-30.79-119.877-13.172-22.065-38.807-51.397-109.092-51.397l-73.345 0c-48.842 0-88.58-39.722-88.58-88.545l0-334.754c0-48.82 39.737-88.545 88.58-88.545l534.336 0c24.33 0 48.22 8.325 67.275 23.43 19.06 15.11 32.605 36.475 38.145 60.155l73.52 314.264C919.058 406.946 911.553 440.431 890.908 466.466zM168.672 65.292 168.672 400.044c0 16.27 13.252 29.505 29.537 29.505l62.232 0 0-393.762-62.232 0C181.925 35.787 168.672 49.022 168.672 65.292zM853.998 388.044l-73.52-314.272c-5.23-22.36-24.94-37.985-47.93-37.985L319.484 35.787 319.484 433.831c49.877 9.52 87.4 34.92 111.86 75.895 26.05 43.64 32.75 96.257 38.662 142.68 2.67 20.977 5.193 40.79 9.2 55.99 4.297 16.302 8.745 21.08 10.457 22.377 1.96 1.485 5.677 1.835 11.05 1.035 29.615-4.4 50.175-17.83 62.84-41.052 25.99-47.642 14.505-128.052-10.265-182.86-5.93-13.127-4.83-28.167 2.96-40.232 7.78-12.052 21.01-19.247 35.395-19.247l214.424 0c15.125 0 29.185-6.792 38.58-18.637C854.028 417.951 857.438 402.739 853.998 388.044z"  horiz-adv-x="1024" />

    
    <glyph glyph-name="jiantou9" unicode="&#59136;" d="M944.083879 606.463698c14.264888-18.286482 15.462157-41.208541 2.670829-51.196009l-417.191704-325.421604c-2.885723-2.261507-12.156878-7.828292-13.732769-9.578146-15.544021-17.181311-37.893029-22.338774-49.947576-11.461029l-392.908648 354.309538c-12.054547 10.887978-9.271154 33.666774 6.272867 50.889017 15.544021 17.21201 37.893029 22.349007 49.988508 11.471262l357.584118-322.443783 408.258241 318.463122C907.910005 631.483534 929.84969 624.739946 944.083879 606.463698z"  horiz-adv-x="1024" />

    
    <glyph glyph-name="sanjiaoxing-up" unicode="&#59279;" d="M832.185 191.981h-640.37l320.184 384.016z"  horiz-adv-x="1024" />

    
    <glyph glyph-name="sanjiaoxing-down" unicode="&#59281;" d="M191.815 576.019h640.37l-320.184-384.016z"  horiz-adv-x="1024" />

    
    <glyph glyph-name="renzhengxinxi" unicode="&#59027;" d="M485.648423-128c-144.376948 0-412.841368 220.864564-412.841368 429.728646L72.807056 717.817567l41.04289 0.68044c0.866014 0 92.50888 1.948532 187.059079 40.331521 96.962668 39.403649 159.532198 84.652894 160.11985 85.054972l24.495832 17.846079 24.712335-17.846079c0.587653-0.433007 63.126253-45.651323 160.11985-85.054972 94.550199-38.382989 186.193065-40.331521 187.151867-40.331521l40.857315-0.68044 0.185574-416.057992C898.582578 92.895494 630.118159-128 485.648423-128L485.648423-128M156.160928 638.051468l0-336.291893c0-161.511659 233.854778-346.374773 329.487495-346.374773 95.632717 0 329.487495 184.863115 329.487495 346.374773L815.135919 638.051468c-40.857315 4.422859-107.200193 15.588257-176.079256 43.548145-70.611091 28.702187-124.242117 59.909629-153.40824 78.498007-29.104265-18.588377-82.76622-49.79582-153.315452-78.498007C263.361121 653.608795 197.018243 642.474326 156.160928 638.051468L156.160928 638.051468M463.56506 145.413072 288.28996 294.738673l53.909387 63.404615 112.458137-95.725504 213.441585 245.886191 63.033466-54.682614L463.56506 145.413072 463.56506 145.413072M463.56506 145.413072 463.56506 145.413072z"  horiz-adv-x="1024" />

    
    <glyph glyph-name="weibiaoti105" unicode="&#59072;" d="M936.038 750.874c-109.38 118.519-286.737 118.519-396.083 0l-27.93-30.276-27.947 30.276c-109.363 118.519-286.703 118.519-396.066 0-109.38-118.511-109.38-310.647 0-429.158l27.93-30.251 396.083-365.414 396.066 365.414 27.947 30.251c109.362 118.51 109.362 310.647 0 429.158v0z"  horiz-adv-x="1024" />

    
    <glyph glyph-name="gift" unicode="&#58940;" d="M85.931-54.016c0-24.576 7.125-31.317 29.44-31.317h353.365v469.589h-382.805v-438.272zM555.264-85.333h353.365c22.357 0 29.44 6.699 29.44 31.317l-0 438.272h-382.848v-469.589zM938.667 640h-213.333c51.499 11.733 105.899 49.707 112.597 94.293 7.851 50.859-52.565 127.957-125.653 118.187-87.424-12.117-151.509-89.259-196.736-149.077-44.885 58.667-103.381 127.189-187.179 147.115-81.152 19.2-136.747-64.939-135.253-116.992 1.451-44.245 52.608-81.835 105.557-93.525h-213.333c-26.368 0-42.667-14.848-42.667-42.667v-170.581l426.667-0.085v213.333h85.333v-213.333l426.667 0.085v170.581c0 27.819-16.341 42.667-42.667 42.667zM251.648 717.824c-14.763 16.427-4.779 38.741 4.48 55.595 17.024 29.696 40.747 47.744 81.152 30.933 56.32-23.509 97.792-73.216 131.584-117.803-71.552-7.893-178.304-10.965-217.216 31.275zM562.944 687.317c34.816 44.629 75.221 89.941 131.157 117.803 58.581 28.971 113.024-49.323 85.205-86.912-21.419-28.544-89.259-31.232-125.909-32.853-30.080-1.536-60.501-0.811-90.453 1.963z"  horiz-adv-x="1024" />

    
    <glyph glyph-name="xiaoxi" unicode="&#58900;" d="M1465.119075 436.383815H1244.189595c-25.008092 0-45.428902-20.716763-45.428901-46.168786v-14.353757c0-25.452023 20.272832-46.168786 45.428901-46.168786H1464.971098c25.156069 0 45.428902 20.716763 45.428902 46.168786v14.353757c0 25.452023-20.124855 46.168786-45.280925 46.168786zM952.675145 832.665896c-68.661272-55.343353-212.494798-133.031214-315.930636-207.759538h-0.147977c-1.183815-0.739884-2.36763-4.883237-3.551445-5.623121-12.282081-6.954913-17.757225-26.191908-84.198844-26.191908h-129.627746c-33.294798 0-54.011561-15.833526-54.011561-51.495953v-316.670521c0-35.662428 18.94104-53.271676 54.011561-53.271676h130.071676c66.145665 0 71.472832-19.236994 83.606937-26.191907 1.183815-0.591908 2.36763-4.883237 3.551445-5.475145l0.147977-0.147977c100.180347-74.580347 244.901734-158.33526 315.930636-211.606936 21.308671-15.981503 92.485549-44.09711 92.485549 54.899422v799.075144c0.147977 98.996532-71.620809 67.32948-92.337572 50.460116z m203.912138-218.265896c11.83815-21.012717 34.922543-26.339884 51.939885-11.83815l181.56763 155.375722c17.017341 14.501734 21.160694 43.209249 9.47052 64.221966l-6.510983 11.83815c-11.690173 21.012717-35.07052 26.339884-51.939884 11.83815L1159.398844 690.608092c-17.017341-14.501734-21.160694-43.209249-9.47052-64.369942l6.658959-11.83815z m233.507515-607.29711L1208.527168 162.330636c-17.017341 14.501734-40.249711 9.174566-51.939885-11.690174l-6.658959-11.83815c-11.83815-21.012717-7.546821-49.720231 9.47052-64.369942l181.56763-155.227746c17.017341-14.501734 40.249711-9.322543 51.939884 11.690174l6.65896 11.83815c11.690173 21.012717 7.398844 49.868208-9.47052 64.369942z"  horiz-adv-x="1879" />

    
    <glyph glyph-name="mail" unicode="&#58986;" d="M809.6 105.6h-595.2c-51.2 0-89.6 38.4-89.6 89.6v377.6c0 51.2 38.4 89.6 89.6 89.6h595.2c51.2 0 89.6-38.4 89.6-89.6v-377.6c0-51.2-38.4-89.6-89.6-89.6zM809.6 611.2h-595.2c-19.2 0-38.4-19.2-38.4-38.4v-377.6c0-19.2 19.2-38.4 38.4-38.4h595.2c19.2 0 38.4 19.2 38.4 38.4v377.6c0 19.2-19.2 38.4-38.4 38.4zM348.8 348.8c12.8 12.8 25.6 12.8 38.4 0 12.8-12.8 12.8-25.6 0-38.4-25.6-25.6-76.8-70.4-102.4-96-6.4-6.4-12.8-12.8-19.2-12.8-6.4 0-12.8 6.4-19.2 12.8 0 0-6.4 6.4-6.4 12.8s0 12.8 6.4 19.2l102.4 102.4zM700.8 348.8c-12.8 12.8-25.6 12.8-38.4 0s-12.8-25.6 0-38.4c32-25.6 76.8-70.4 102.4-96 6.4-6.4 12.8-6.4 19.2-6.4 6.4 0 12.8 0 19.2 6.4 6.4 6.4 6.4 12.8 6.4 19.2 0 6.4 0 12.8-6.4 19.2-25.6 19.2-76.8 70.4-102.4 96zM521.6 361.6c-32 0-64 6.4-89.6 25.6l-169.344 124.224c-7.079 5.23-11.62 13.545-11.62 22.921 0 6.191 1.98 11.92 5.341 16.588l-0.058-0.020c4.972 6.878 12.972 11.302 22.005 11.302 5.857 0 11.28-1.86 15.71-5.022l176.366-125.192c32-25.6 83.2-25.6 121.6 6.4l146.624 118.4c4.393 3.582 10.061 5.752 16.236 5.752 7.97 0 15.095-3.615 19.826-9.294 3.6-4.286 5.766-9.811 5.766-15.842 0-7.532-3.38-14.275-8.705-18.795l-147.747-125.021c-32-19.2-64-32-102.4-32z"  horiz-adv-x="1024" />

    
    <glyph glyph-name="compress" unicode="&#58974;" d="M512 347.428571v-256q0-14.857143-10.857143-25.714285t-25.714286-10.857143-25.714285 10.857143l-82.285715 82.285714-189.714285-189.714286q-5.714286-5.714286-13.142857-5.714285t-13.142858 5.714285L86.285714 23.428571q-5.714286 5.714286-5.714285 13.142858t5.714285 13.142857l189.714286 189.714285-82.285714 82.285715q-10.857143 10.857143-10.857143 25.714285t10.857143 25.714286 25.714285 10.857143h256q14.857143 0 25.714286-10.857143t10.857143-25.714286z m431.428571 384q0-7.428571-5.714285-13.142857l-189.714286-189.714285 82.285714-82.285715q10.857143-10.857143 10.857143-25.714285t-10.857143-25.714286-25.714285-10.857143H548.571429q-14.857143 0-25.714286 10.857143t-10.857143 25.714286V676.571429q0 14.857143 10.857143 25.714285t25.714286 10.857143 25.714285-10.857143l82.285715-82.285714 189.714285 189.714286q5.714286 5.714286 13.142857 5.714285t13.142858-5.714285l65.142857-65.142857q5.714286-5.714286 5.714285-13.142858z"  horiz-adv-x="1024" />

    
    <glyph glyph-name="daimapeizhir" unicode="&#59175;" d="M513.536 892.928C233.472 892.928 5.632 665.088 5.632 385.536c0-280.064 227.84-507.904 507.904-507.904 280.064 0 507.904 227.84 507.904 507.904C1020.928 665.088 793.6 892.928 513.536 892.928zM425.984 233.984c-4.608-5.12-10.752-7.168-16.896-7.168-5.632 0-11.264 2.048-15.36 6.144L246.272 368.64c-5.12 4.608-7.68 11.264-7.168 17.92-0.512 6.656 2.048 13.312 7.68 18.432L394.24 534.016c9.216 8.192 24.064 7.168 32.256-2.048 8.192-9.216 7.168-24.064-2.048-32.256L294.4 386.048 424.448 266.24C433.664 257.536 434.176 243.2 425.984 233.984zM574.976 586.24 512 177.664c-1.536-11.264-11.264-19.456-22.528-19.456-1.024 0-2.56 0-3.584 0.512-12.288 2.048-20.992 13.312-18.944 26.112l62.464 408.576c2.048 12.288 13.312 20.992 26.112 18.944C568.32 610.304 576.512 598.528 574.976 586.24zM803.328 361.472l-147.456-136.192c-4.608-4.096-9.728-6.144-15.36-6.144-6.144 0-12.288 2.56-16.896 7.168-8.704 9.216-8.192 23.552 1.536 32.256l130.048 119.808-129.536 113.664c-9.216 8.192-10.24 22.528-2.048 32.256 8.192 9.216 22.528 10.24 32.256 2.048l147.456-129.536c5.632-4.608 8.192-11.776 7.68-18.432C810.496 372.736 808.448 366.08 803.328 361.472z"  horiz-adv-x="1024" />

    
    <glyph glyph-name="tishi1" unicode="&#59024;" d="M922.42944 557.38368c-22.44096 53.0432-54.54848 100.67456-95.4624 141.58336-40.89856 40.89856-88.54016 73.02656-141.57824 95.4624C630.47168 817.65888 572.12928 829.44 512 829.44c-60.11904 0-118.4512-11.78112-173.37856-35.01056-53.03296-22.43584-100.67968-54.55872-141.58336-95.45728-40.9088-40.9088-73.02656-88.54528-95.4624-141.58336C78.35136 502.46656 66.56 444.12416 66.56 384s11.79136-118.46144 35.01568-173.37856c22.43584-53.0432 54.5536-100.67968 95.46752-141.58336 40.89856-40.90368 88.53504-73.02656 141.57824-95.4624C393.53856-49.65376 451.87584-61.44 512-61.44c60.1344 0 118.46144 11.78624 173.39392 35.01568 53.03808 22.43584 100.67968 54.5536 141.57824 95.4624 40.9088 40.90368 73.02144 88.54016 95.4624 141.58336C945.65888 265.53856 957.44 323.87584 957.44 384s-11.78112 118.46656-35.01056 173.38368z m-57.10848-322.63168c-19.30752-45.65504-46.97088-86.66624-82.18112-121.88672a382.43328 382.43328 0 0 0-121.8816-82.18112c-47.26784-19.98848-97.48992-30.12608-149.26336-30.12608-51.76832 0-101.98016 10.13248-149.248 30.12608-45.66016 19.31264-86.66112 46.96064-121.87648 82.18112a382.3104 382.3104 0 0 0-82.18112 121.88672c-19.9936 47.26784-30.1312 97.47968-30.1312 149.248s10.13248 101.98528 30.1312 149.248a382.17216 382.17216 0 0 0 82.18112 121.88672 382.26944 382.26944 0 0 0 121.87648 82.18112c47.26784 19.98848 97.47968 30.1312 149.248 30.1312 51.77344 0 101.98016-10.1376 149.25312-30.1312 45.66016-19.31264 86.66112-46.96064 121.8816-82.18112a382.17216 382.17216 0 0 0 82.18112-121.88672c19.99872-47.26272 30.1312-97.47968 30.1312-149.248s-10.13248-101.98016-30.12096-149.248zM549.77024 315.53024c-2.56-27.95008-20.33152-41.0112-37.87264-41.0112-13.0304 0 0 0 0 0-16.66048 3.13856-29.59872 10.24512-35.28192 38.51264l-22.92224 264.25856c0 26.56256 32.29184 50.06848 59.68896 50.06848 27.40224 0 56.91392-24.58112 56.91392-51.0976l-20.52608-260.73088zM512 239.9488c-27.40224 0-49.6384-22.21056-49.6384-49.6384 0-27.43296 22.21056-49.67424 49.6384-49.67424 27.42272 0 49.64352 22.24128 49.64352 49.67424-0.00512 27.392-22.22592 49.6384-49.64352 49.6384z"  horiz-adv-x="1024" />

    
    <glyph glyph-name="net" unicode="&#58887;" d="M512 814.46912c-124.22144 0-235.9808-53.1968-314.63424-137.6256-0.36864 0.28672-0.82944 0.53248-1.21856 0.8192L186.368 664.7296C121.22112 589.2608 81.53088 491.27424 81.53088 384c0-107.80672 40.13056-206.2336 105.86112-281.86624l8.7552-11.55584c0.33792 0.26624 0.75264 0.4864 1.09568 0.73216 78.65344-84.5312 190.464-137.7792 314.75712-137.7792 237.3632 0 430.46912 193.12128 430.46912 430.46912 0 237.37344-193.12128 430.46912-430.46912 430.46912z m24.38144-273.69984c58.95168 2.1504 115.44064 11.3664 166.98368 26.52672 14.99136-47.68768 24.1152-101.64224 26.18368-158.93504h-193.16736V540.76928z m0 48.7424V763.16672c61.14816-11.94496 114.5856-68.38784 149.81632-150.15936-46.1312-13.2608-96.768-21.43232-149.81632-23.5008z m-48.76288 173.66016v-173.83424c-53.17632 1.63328-103.9616 9.43616-150.40512 22.28224 35.2256 82.55488 88.91392 139.53536 150.40512 151.552z m0-222.5664v-132.224H294.4512c2.06848 56.68864 10.96704 110.17728 25.69728 157.50144 51.80416-14.72512 108.4416-23.5776 167.4752-25.28256zM245.7088 408.37632h-114.176c4.85376 76.3904 32.15872 146.55488 75.53536 204.2624a470.9632 470.9632 0 0 1 66.80064-31.59552c-16.26112-52.00384-26.0864-110.34624-28.16-172.66688z m0-48.76288c2.0736-62.14656 11.84768-120.34048 28.04224-172.24704a471.36768 471.36768 0 0 1-66.85184-31.7696c-43.27936 57.63584-70.51264 127.75424-75.3664 204.01664h114.176z m48.7424 0h193.16736v-131.97312c-59.00288-1.70496-115.88096-10.01984-167.66976-24.84224-14.60224 47.1808-23.4496 100.4032-25.4976 156.81536z m193.16736-180.736v-174.04928c-61.63456 12.03712-115.42016 69.28896-150.67648 152.13568 46.42304 12.94336 97.50016 20.28544 150.6816 21.9136z m48.76288-174.04928v173.8752c53.07904-2.04288 103.936-9.79456 150.0672-23.15776-35.23584-82.08896-88.77568-138.752-150.0672-150.71744z m0 222.6432v132.1472h193.16736c-2.06848-57.05216-11.12064-110.84288-26.0096-158.40768-51.52256 15.26784-108.1856 24.0896-167.15776 26.2656z m241.90464 132.1472h114.2016c-4.92544-77.24032-32.768-148.14208-76.99456-206.19264-20.28544 11.97056-42.42432 22.528-65.87392 31.8208 16.57344 52.41344 26.5728 111.39072 28.672 174.36672z m0 48.75776c-2.0992 63.0272-12.09344 122.02496-28.6976 174.49472a462.39232 462.39232 0 0 1 65.71008 31.93856c44.31872-58.09664 72.26368-129.09568 77.16352-206.43328h-114.176z m4.608 244.1728c-15.67744-8.75008-32.2048-16.8704-49.95584-23.9104-16.50688 39.15264-37.10976 73.1648-60.66176 101.2992 41.34912-19.23584 78.8736-45.37344 110.62272-77.3888zM351.744 729.96864c-23.94112-28.60032-44.86144-63.22176-61.5168-103.18336-18.11456 6.94784-34.95936 15.04256-50.95424 23.74656C271.4112 683.42272 309.53984 710.33856 351.744 729.96352z m-112.64-612.3264a423.6544 423.6544 0 0 0 51.02592 23.74656c16.67584-40.0384 37.64736-74.70592 61.61408-103.3728-42.27584 19.69664-80.4352 46.63808-112.64 79.62624z m433.17248-79.60576c23.552 28.16 44.15488 62.19776 60.68736 101.3504a421.9392 421.9392 0 0 0 50.10432-23.79264c-31.7952-32.08704-69.37088-58.27072-110.79168-77.55776z"  horiz-adv-x="1024" />

    
    <glyph glyph-name="edit" unicode="&#59025;" d="M688.814 719.211l158.39-158.39-448.018-448.019-158.39 158.39zM192 64v158.4l158.4-158.4zM895.2 608.8l-158.4 158.4 46.8 46.8c24 24 63.3 24 87.4 0l71-71c24-24 24-63.3 0-87.4l-46.8-46.8zM128 0h768v-64h-768zM64 128h64v-192h-64zM895.3 128h64v-192h-64z"  horiz-adv-x="1024" />

    
    <glyph glyph-name="xianshi" unicode="&#59029;" d="M512 659.2C332.8 659.2 64 512 64 377.6c0-89.6 268.8-262.4 448-262.4s448 185.6 448 262.4c0 83.2-249.6 281.6-448 281.6z m0-486.4c-179.2 0-377.6 166.4-384 198.4 0 76.8 211.2 217.6 384 217.6 179.2 0 371.2-172.8 384-217.6-25.6-44.8-230.4-198.4-384-198.4z m0 371.2c-89.6 0-166.4-70.4-166.4-160S416 217.6 512 217.6c89.6 0 166.4 70.4 166.4 166.4 0 89.6-76.8 160-166.4 160z"  horiz-adv-x="1024" />

    
    <glyph glyph-name="suo" unicode="&#59081;" d="M828.691531 487.055294h-61.229077V679.855214C767.564844 799.036896 679.919208 896 572.205179 896H452.613939c-107.714029 0-195.359664-96.963104-195.359664-216.144786v-192.79992h-61.945806c-42.491751 0-77.09949-38.293771-77.09949-85.29067v-444.473953c0-46.9969 34.607739-85.290671 77.09949-85.290671H828.691531c42.491751 0 77.09949 38.293771 77.09949 85.290671V401.764624c0 47.09929-34.607739 85.290671-77.09949 85.29067z m-482.358164 192.79992c0 64.812719 47.713629 117.543446 106.280572 117.543446h119.59124c58.566943 0 106.280572-52.730727 106.280572-117.543446v-192.79992h-332.152384V679.855214z"  horiz-adv-x="1024" />

    
    <glyph glyph-name="default" unicode="&#59007;" d="M512.020 822.323c-239.75 0-434.093-195.721-434.093-437.159s194.342-437.159 434.093-437.159 434.112 195.721 434.112 437.159-194.362 437.159-434.112 437.159zM729.087 372.55c0-18.589-14.961-33.649-33.397-33.649h-367.321c-18.434 0-33.377 15.058-33.377 33.649v33.61c0 18.59 14.941 33.649 33.377 33.649h367.321c18.435 0 33.397-15.058 33.397-33.649v-33.61z"  horiz-adv-x="1024" />

    
    <glyph glyph-name="xiaoxi1" unicode="&#59044;" d="M768 384a255.2 255.2 0 0 0-75-181l45.25-45.25a320 320 0 0 1 0 452.55L693 565a255.2 255.2 0 0 0 75-181zM896 384a382.8 382.8 0 0 0-112.47-271.53l45.25-45.25a448 448 0 0 1 0 633.57l-45.25-45.25A382.8 382.8 0 0 0 896 384zM715.651707 180.349879m-22.627417-22.627417a32 32 0 1 1 45.254834 45.254834 32 32 0 1 1-45.254834-45.254834ZM806.162728 89.849414m-22.627417-22.627417a32 32 0 1 1 45.254834 45.254834 32 32 0 1 1-45.254834-45.254834ZM715.64795 587.65495m-22.627417-22.627417a32 32 0 1 1 45.254834 45.254834 32 32 0 1 1-45.254834-45.254834ZM806.15795 678.16495m-22.627417-22.627417a32 32 0 1 1 45.254834 45.254834 32 32 0 1 1-45.254834-45.254834ZM544 770.46h-19.33a63.77 63.77 0 0 1-43.82-17.36L292.35 576H128a32 32 0 0 1-32-32v-320a32 32 0 0 1 32-32h164.35l188.5-177.1a63.77 63.77 0 0 1 43.82-17.36H544a64.07 64.07 0 0 1 64 64V706.46a64.07 64.07 0 0 1-64 64zM256 240h-96V512h96z m288-178.46h-19.33L320 253.84V514.16l204.67 192.3H544v-644.92z"  horiz-adv-x="1024" />

    
    <glyph glyph-name="xiazai1" unicode="&#59052;" d="M896 291.2l-384-353.28-384 353.28h256V766.08h256v-474.88z"  horiz-adv-x="1024" />

    
    <glyph glyph-name="chexiao" unicode="&#58967;" d="M530.496 524.928h-6.144V661.632c0 51.136-29.312 72.448-65.472 43.328L122.816 434.624c-36.096-28.992-36.096-76.48 0.128-105.472l333.504-267.648c36.16-28.992 67.968 0.448 67.968 43.584v144.256h50.496c145.856 0 257.152-62.976 325.248-184.576 13.376-22.08 27.456-17.28 27.456 0-2.944 216.576-186.368 460.16-397.12 460.16z"  horiz-adv-x="1024" />

    
    <glyph glyph-name="qq" unicode="&#59015;" d="M960.1 384c0 247.4-200.5 447.9-447.9 447.9S64.3 631.4 64.3 384s200.5-447.9 447.9-447.9S960.1 136.7 960.1 384zM690.8 450.8c0 185.5-96.1 241.6-178.6 241.6s-180.5-55.3-180.5-241.6c0 0-62.6-140.2-62.6-207.5s56.5 32.7 56.5 32.7-1.8-67.2 56.5-113.8c0 0-70.8-28.4-47.3-42.3 23.5-13.9 170.6-2.4 170.6-2.4h10s142.1-9.1 169.1 0-16.4 38.7-44.4 44.7c56.6 50.4 56.6 113.8 56.6 113.8s55.9-101.8 55.9-34.4-61.8 209.2-61.8 209.2z"  horiz-adv-x="1024" />

    
    <glyph glyph-name="biaoqian" unicode="&#59215;" d="M1024 117.24800000000005l0 534.2208-1024 0 117.76-278.528-117.76-255.6928z"  horiz-adv-x="1024" />

    
    <glyph glyph-name="dashujucunchu" unicode="&#59000;" d="M975.644444 233.24444400000004V534.7555560000001c28.444444 14.222222 51.2 42.666667 51.2 76.8 0 48.355556-36.977778 85.333333-85.333333 85.333333-19.911111 0-39.822222-8.533333-54.044444-19.911111L594.488889 830.577778C585.955556 867.555556 551.822222 896 512 896c-42.666667 0-79.644444-31.288889-85.333333-73.955556L145.066667 671.288889C130.844444 688.355556 108.088889 696.8888890000001 85.333333 696.8888890000001c-48.355556 0-85.333333-36.977778-85.333333-85.333333 0-39.822222 28.444444-73.955556 65.422222-82.488889v-290.133334C28.444444 230.39999999999998 0 196.26666699999998 0 156.44444399999998c0-48.355556 36.977778-85.333333 85.333333-85.333333 22.755556 0 45.511111 8.533333 59.733334 25.6l281.6-150.755555c5.688889-42.666667 39.822222-73.955556 85.333333-73.955556 39.822222 0 73.955556 28.444444 82.488889 65.422222l290.133333 153.6c14.222222-11.377778 34.133333-19.911111 54.044445-19.911111 48.355556 0 85.333333 36.977778 85.333333 85.333333 0 34.133333-19.911111 62.577778-48.355556 76.8z m-96.711111-14.222222l-133.688889 65.422222v199.111112l133.688889 65.422222c11.377778-11.377778 22.755556-17.066667 36.977778-19.911111v-290.133334c-14.222222-2.844444-25.6-11.377778-36.977778-19.911111zM853.333333 600.177778l-139.377777-68.266667L540.444444 631.4666669999999V731.022222c19.911111 8.533333 36.977778 22.755556 45.511112 39.822222l267.377777-142.222222v-28.444444zM520.533333 190.57777799999997l-170.666666 96.711111v193.422222l170.666666 96.711111 170.666667-96.711111v-193.422222l-170.666667-96.711111zM483.555556 731.022222v-105.244444l-167.822223-96.711111L170.666667 600.177778V611.555556v8.533333l270.222222 145.066667c8.533333-17.066667 25.6-28.444444 42.666667-34.133334zM145.066667 548.977778l147.911111-73.955556v-184.888889l-147.911111-73.955555c-5.688889 5.688889-14.222222 11.377778-22.755556 17.066666V534.7555560000001c8.533333 2.844444 14.222222 8.533333 22.755556 14.222222zM170.666667 167.822222l145.066666 73.955556 167.822223-96.711111v-105.244445c-17.066667-5.688889-34.133333-17.066667-42.666667-34.133333l-270.222222 142.222222V156.44444399999998v11.377778z m369.777777-130.844444v99.555555l176.355556 99.555556 139.377778-68.266667v-11.377778c0-5.688889 0-11.377778 2.844444-17.066666l-267.377778-142.222222c-14.222222 19.911111-31.288889 34.133333-51.2 39.822222z"  horiz-adv-x="1026" />

    
    <glyph glyph-name="guanzhu" unicode="&#59077;" d="M726.109 863.418c-83.782 0-158.255-32.582-214.109-93.091-55.855 60.509-130.327 93.091-214.109 93.091-162.909 0-297.891-144.291-297.891-321.164 0-93.091 37.236-181.527 107.055-246.691l353.745-367.709c13.964-13.964 32.582-23.273 51.2-23.273 18.618 0 37.236 9.309 51.2 23.273l358.4 363.055c65.164 65.164 107.055 158.255 107.055 251.345-4.655 176.873-139.636 321.164-302.545 321.164zM870.4 346.764l-358.4-363.055-358.4 367.709c-51.2 51.2-83.782 116.364-83.782 190.836 0 134.982 102.4 242.036 228.073 242.036 97.745 0 176.873-65.164 214.109-153.6 32.582 88.436 116.364 153.6 214.109 153.6 125.673 0 228.073-107.055 228.073-242.036 0-74.473-32.582-144.291-83.782-195.491z"  horiz-adv-x="1028" />

    
    <glyph glyph-name="laba" unicode="&#58888;" d="M858.584615 586.174359c-5.251282 5.251282-10.502564 10.502564-15.753846 13.128205-5.251282 5.251282-10.502564 10.502564-18.379487 13.128205v-10.502564c-21.005128 0-39.384615-18.379487-39.384615-39.384615v-2.625641c0-21.005128 18.379487-39.384615 39.384615-39.384616v-18.379487c26.25641-34.133333 39.384615-73.517949 39.384615-118.153846s-15.753846-86.646154-39.384615-118.153846v-15.753846c-21.005128 0-39.384615-18.379487-39.384615-39.384616v-2.625641c0-21.005128 18.379487-39.384615 39.384615-39.384615v-10.502564c7.876923 5.251282 13.128205 10.502564 21.005128 15.753846 5.251282 2.625641 10.502564 7.876923 13.128205 10.502564 52.512821 49.887179 86.646154 120.779487 86.646154 202.174359 0 78.769231-34.133333 149.661538-86.646154 199.548718z m-189.046153 191.671795h-7.876924c-7.876923 0-13.128205-2.625641-21.005128-7.876923l-330.830769-149.661539H157.538462c-44.635897 0-78.769231-34.133333-78.769231-78.76923v-317.702565c2.625641-42.010256 36.758974-76.14359 78.769231-76.143589h39.384615c21.005128 0 39.384615 18.379487 39.384615 39.384615s-15.753846 36.758974-34.133333 39.384615H236.307692c-65.641026 0-78.769231 13.128205-78.76923 78.769231v-2.625641 170.666667-7.876923c0 60.389744 10.502564 76.14359 65.641025 78.769231H315.076923c5.251282 0 10.502564 2.625641 15.753846 5.251282 2.625641 0 7.876923 2.625641 10.502564 5.251282l288.820513 131.282051v-593.394872L375.466667 213.333333c-18.379487 13.128205-42.010256 7.876923-55.138462-7.876923-13.128205-18.379487-7.876923-42.010256 7.876923-55.138461L638.030769 3.282051c7.876923-5.251282 18.379487-7.876923 26.25641-7.876923h2.625642c21.005128 0 39.384615 18.379487 39.384615 39.384616L708.923077 738.461538c0 23.630769-18.379487 39.384615-39.384615 39.384616z m-506.748718-551.384616H157.538462h5.251282z m-5.251282 315.076924h21.005128H157.538462z"  horiz-adv-x="1024" />

    
    <glyph glyph-name="mstest" unicode="&#59014;" d="M552.8 384l291.8 198.8-299.4 175.8-300.2-163z m167.2-78.8c61.6 0 104 12.8 116 34.4l1 11.6 1.4 14.4 12.4 137.4 4.6 50.6-287.6-196v-34c56.2-11.8 108.6-18.4 152.2-18.4z m11-77.4c-49.8 0-105 6-163.2 17.6v-231.2l251.4 221.6c-25.8-5.2-55.2-8-88.2-8zM236 479.4c8.4-9.2 18.4-18.6 30-27.8 53.4-43.2 132.4-81.2 222.4-107.6 16.6-4.8 33-9.2 49.4-13.2V358l-308 211.4 6.2-90z m230.8-209.2c-83.2 24.2-160.2 58.4-223.4 98.2l7.8-114.2 286.4-241.2V251.8c-23.2 5.2-46.8 11.4-70.8 18.4zM848.4 464.4l-4.2-42.2c21.6-30.8 30.4-60.4 23-85.4-22.6-77.6-192-78.8-387.4-21.8-195 57-324.8 164-302.2 241.6 11.2 38.4 57.6 62.4 125.2 70l45.6 24.8c-119 6.4-207.6-18.2-224-74-25.2-86.6 133.4-214.8 350.8-278.4 217.6-63.4 410.8-54 436 32.4 11.4 38.8-13 86.4-62.8 133z"  horiz-adv-x="1024" />

    
    <glyph glyph-name="tianjiachengyuan" unicode="&#59034;" d="M543.744-39.936h-422.4c-7.68 0-15.36 1.536-22.016 5.12-9.728 4.608-13.824 14.336-13.824 25.088v93.696c0 3.072 1.024 6.144 2.048 8.704 54.784 128.512 148.992 213.504 284.16 251.904 4.608 1.024 9.728 1.024 14.336-0.512 61.952-21.504 123.392-21.504 184.832 0.512 3.584 1.024 8.192 1.536 11.264 0.512 19.968-5.632 39.424-11.264 73.728-25.6 0 0 55.808 36.352 52.736 39.424-25.6 24.064-58.368 28.672-60.416 29.696 3.072 2.56 5.12 4.608 7.68 7.168 54.784 49.664 86.016 111.104 92.672 184.832 11.776 131.072-71.68 252.928-198.656 288.768-15.36 4.096-30.72 5.632-46.592 8.704-2.048 0.512-4.096 1.024-5.632 1.536h-39.424c-14.336-2.56-28.672-3.584-43.008-7.68-109.056-29.696-178.176-100.352-202.24-210.432-21.504-97.792 6.144-183.296 75.776-255.488 5.632-6.144 12.288-11.264 18.432-16.896-12.8-5.632-25.6-10.752-37.888-16.896-114.176-56.832-193.536-145.408-240.64-263.68-1.024-2.048-2.048-4.608-3.072-6.656v-122.368c1.024-4.608 2.048-9.216 3.584-13.824 11.264-35.328 34.816-57.344 71.68-65.024 1.024 0 2.048-1.024 3.072-1.536 158.72-3.072 363.52-1.536 440.32-1.536l-0.512 62.464zM266.24 603.648c-0.512 117.248 94.208 213.504 210.944 214.016 116.736 0.512 211.456-95.744 211.456-214.016 0-118.272-94.72-214.528-210.944-215.04-116.736 0-210.944 96.256-211.456 215.04zM736.768 153.6v195.584h60.928v-195.584h198.144v-61.952h-198.144v-196.608h-60.928v196.608h-198.144v61.952h198.144z"  horiz-adv-x="1024" />

    
    <glyph glyph-name="yincang1" unicode="&#59829;" d="M927.4 383.1c0-0.4 0-0.7-0.1-1v-0.5c0-0.3-0.1-0.5-0.1-0.8 0-0.3-0.1-0.6-0.1-0.9v-0.1c-1-6.6-4-12.7-8.7-17.5-8.7-10.6-18.2-20.5-27.8-30.2-51.7-52.5-111.1-99.3-176-133.3-41.5-21.7-85.9-39.2-131.9-47.6-50.6-9.3-101.3-8.8-151.6 2.2-39.9 8.7-78 23.5-114.4 42.2l1.2 1.2 103.8 68.3c25.6-18.4 56.8-29.4 90.8-29.4 86 0 155.6 69.7 155.6 155.6 0 11.5-1.3 22.6-3.7 33.4l137.2 90.2c9.1-6.8 18.1-13.8 26.8-21 32-26.1 63.5-54.7 90-86.8 4.6-4.7 7.7-10.9 8.7-17.5v-0.1c0-0.3 0.1-0.6 0.1-0.9 0-0.2 0.1-0.5 0.1-0.8v-0.5c0-0.3 0.1-0.7 0.1-1 0-0.5 0.1-1 0.1-1.6 0-0.6 0-1.1-0.1-1.6z m-415-69.8c-5.1 0-10.1 0.5-14.9 1.5l90.9 59.8c-7.5-35-38.7-61.3-76-61.3z m341.4 275.5L179.6 148l-0.2-0.2c-3.1-2-6.7-3.2-10.6-3.2-10.7 0-19.5 8.7-19.5 19.5 0 6.8 3.5 12.8 8.8 16.3l674.2 440.8 0.2 0.2c3.1 2 6.7 3.2 10.6 3.2 10.7 0 19.5-8.7 19.5-19.5 0-6.8-3.5-12.8-8.8-16.3zM512.4 469c7.4 0 14.6-1.1 21.4-3l-98.6-65.8c4.4 38.7 37.3 68.8 77.2 68.8z m94.5 45.6c-26.2 20.1-58.9 32.1-94.5 32.1-86 0-155.6-69.7-155.6-155.6 0-13.7 2-27 5.3-39.7l-135-90-7.1-4.7c-8.1 6.1-16.1 12.4-23.9 18.8-32 26.1-63.5 54.7-90 86.8-11.6 14.1-11.6 30.7 0 44.7 8.7 10.6 18.2 20.5 27.8 30.2 51.7 52.5 111.1 99.4 176 133.3 41.5 21.7 85.9 39.2 131.9 47.6 50.6 9.3 101.2 8.8 151.6-2.1 37.5-8.2 73.4-21.8 107.8-38.9l-7.2-4.5-87.1-58z"  horiz-adv-x="1024" />

    
    <glyph glyph-name="triangle" unicode="&#58880;" d="M322.392 805.875l421.803-421.898-421.803-421.852v843.75z"  horiz-adv-x="1024" />

    
    <glyph glyph-name="qizhi" unicode="&#59033;" d="M756.022303 773.802667c86.04703 0 142.801455 9.122909 195.584 41.766788v-516.406303c-52.782545-32.581818-107.799273-55.202909-193.846303-55.20291-85.98497 0-117.884121 9.836606-170.511515 42.635637-52.565333 32.519758-109.568 42.635636-195.52194 42.635636-85.922909 0-158.844121-31.930182-211.533575-64.57406V800.147394c52.689455 32.79903 125.641697 64.729212 211.533575 64.729212 85.953939 0 142.987636-10.20897 195.52194-42.635636 52.689455-32.519758 82.881939-48.438303 168.773818-48.438303zM98.148848-114.160485a31.030303 31.030303 0 0 0-31.030303 31.030303V832.574061a31.030303 31.030303 0 1 0 62.060607 0v-915.704243a31.030303 31.030303 0 0 0-31.030304-31.030303z"  horiz-adv-x="1024" />

    
    <glyph glyph-name="csdn" unicode="&#58882;" d="M906.476-47.729c-49.491-17.326-152.165-28.914-295.538-28.914-412.546 0-635.223 193.912-608.806 450.25 31.413 305.428 361.255 477.367 722.463 477.367 139.83 0 222.13-11.388 299.384-30.263l-24.72-205.823c-51.434 17.351-171.688 33.208-269.12 33.208-212.388 0-392.965-63.426-413.44-263.879-18.43-179.328 108.114-265.024 347.121-265.024 83.251 0 205.899 11.885 262.58 29.214l-19.924-196.137z"  horiz-adv-x="1024" />

    
    <glyph glyph-name="yonghujiaose_wushuju" unicode="&#59038;" d="M454.529406-49.631607h31.639427A15.673428 15.673428 0 0 0 501.54969-65.305035c0-8.651732-6.750023-15.673428-15.380857-15.673428H454.529406v-31.639426A15.673428 15.673428 0 0 0 438.855979-127.998746a15.443551 15.443551 0 0 0-15.673428 15.380857V-80.978463h-31.639427A15.673428 15.673428 0 0 0 376.162267-65.305035c0 8.651732 6.750023 15.673428 15.380857 15.673428h31.639427v31.639426A15.673428 15.673428 0 0 0 438.855979-2.611324c8.651732 0 15.673428-6.750023 15.673427-15.380857v-31.639426zM52.244759 383.999896h21.106883A10.448952 10.448952 0 0 0 83.591615 373.550944c0-5.767821-4.493049-10.448952-10.239973-10.448952H52.244759v-21.106883A10.448952 10.448952 0 0 0 41.795807 331.755136a10.281769 10.281769 0 0 0-10.448951 10.239973V363.101992H10.239973A10.448952 10.448952 0 0 0 0 373.550944c0 5.767821 4.493049 10.448952 10.239973 10.448952H31.346856v21.106882A10.448952 10.448952 0 0 0 41.795807 415.346751c5.767821 0 10.448952-4.493049 10.448952-10.239973v-21.106882z m1567.342781 480.651786V885.758564A10.281769 10.281769 0 0 1 1609.138588 895.998537a10.448952 10.448952 0 0 1-10.448952-10.239973V864.651682h-21.106883A10.281769 10.281769 0 0 1 1567.342781 854.20273c0-5.600638 4.597539-10.448952 10.239972-10.448952h21.106883v-21.106883c0-5.746924 4.68113-10.239973 10.448952-10.239973a10.448952 10.448952 0 0 1 10.448952 10.239973V843.753778h21.106883c5.746924 0 10.239973 4.68113 10.239972 10.448952a10.448952 10.448952 0 0 1-10.239972 10.448952H1619.58754zM543.345497 540.734174a20.897904 20.897904 0 0 0 20.877006 20.897903H752.324535a20.897904 20.897904 0 1 0 0-41.795807H564.243401A20.83521 20.83521 0 0 0 543.345497 540.734174z m0-125.387423c0 11.535643 9.299567 20.897904 20.751619 20.897904h251.067415c11.452051 0 20.751618-9.278669 20.751619-20.897904 0-11.535643-9.299567-20.897904-20.751619-20.897904H564.097116A20.772516 20.772516 0 0 0 543.345497 415.346751z m0-125.387422c0 11.535643 9.320465 20.897904 20.856108 20.897903h104.57311c11.514745 0 20.856108-9.278669 20.856108-20.897903 0-11.535643-9.320465-20.897904-20.856108-20.897904h-104.57311A20.814312 20.814312 0 0 0 543.345497 289.959329zM188.081134 666.121596a62.693711 62.693711 0 1 0 0 125.387422 62.693711 62.693711 0 0 0 0-125.387422z m73.142663-417.958075a31.346856 31.346856 0 1 0 0 62.693711 31.346856 31.346856 0 0 0 0-62.693711zM188.081134 697.468452a31.346856 31.346856 0 1 1 0 62.693711 31.346856 31.346856 0 0 1 0-62.693711zM1630.036492 394.448847a62.693711 62.693711 0 1 0 0 125.387423 62.693711 62.693711 0 0 0 0-125.387423z m0 31.346856a31.346856 31.346856 0 1 1 0 62.693711 31.346856 31.346856 0 0 1 0-62.693711zM1295.670032-107.100842a41.795807 41.795807 0 1 0 0 83.591615 41.795807 41.795807 0 0 0 0-83.591615z m0 20.897903a20.897904 20.897904 0 1 1 0 41.795808 20.897904 20.897904 0 0 1 0-41.795808zM1037.727206 328.160697A167.245924 167.245924 0 0 0 1170.282609 164.571906c0-20.856108 0.543345-20.856108-165.594989-20.856108S835.91615 143.715798 835.91615 164.571906c0 80.456929 56.842298 147.64369 132.555403 163.588791l17.324362-17.303465H982.201476l-16.760119-83.842389c-2.298769-11.36846 2.654034-27.188173 11.034093-35.254764L1004.68762 164.571906l25.704422 26.707521c8.045693 8.359161 12.66413 24.32516 10.36536 35.735416L1023.997283 310.857232h-3.594439l17.324362 17.303465zM1003.09938 352.65304a83.591615 83.591615 0 1 0 0 167.18323 83.591615 83.591615 0 0 0 0-167.18323z m-606.039209-188.081134V603.427885c0 46.184367 37.428146 83.591615 83.758798 83.591615H501.54969V707.917403c0 46.184367 37.428146 83.591615 83.758798 83.591615h710.194361A83.612513 83.612513 0 0 0 1379.261647 707.917403v-438.855978c0-46.184367-37.428146-83.591615-83.758798-83.591615H1274.772128v-20.897904c0-15.234572-4.075091-29.50784-11.180378-41.795807h115.732591c11.493847 0 20.83521-9.278669 20.83521-20.897904 0-11.535643-9.46675-20.897904-20.83521-20.897904H355.20167A20.814312 20.814312 0 0 0 334.36646 101.878195c0 11.535643 9.46675 20.897904 20.83521 20.897904h53.03888A83.110963 83.110963 0 0 0 397.060171 164.571906z m877.711957 62.693711h20.83521A41.858501 41.858501 0 0 1 1337.465839 268.998731V707.980097A41.795807 41.795807 0 0 1 1295.607338 749.713211H585.203998A41.858501 41.858501 0 0 1 543.345497 707.980097V687.0195h647.667833A83.612513 83.612513 0 0 0 1274.772128 603.427885v-376.162268zM438.855979 603.490578v-438.981365A41.795807 41.795807 0 0 1 480.71448 122.776099h710.403339A41.858501 41.858501 0 0 1 1232.976321 164.509213V603.490578A41.795807 41.795807 0 0 1 1191.117819 645.223692H480.71448A41.858501 41.858501 0 0 1 438.855979 603.490578zM1441.955358 101.878195c0 11.535643 9.46675 20.897904 20.83521 20.897904h83.717002c11.493847 0 20.83521-9.278669 20.835211-20.897904 0-11.535643-9.46675-20.897904-20.835211-20.897904h-83.717002A20.814312 20.814312 0 0 0 1441.955358 101.878195z"  horiz-adv-x="1692" />

    
    <glyph glyph-name="moban" unicode="&#59026;" d="M172.872 532.267h740.079l-49.439-49.438V726.81l49.439-49.439H172.872l49.439 49.439v-243.982l-49.439 49.438z m0-49.438V726.81h740.079v-243.982H172.872zM894.774 378.493h24.72v49.439H474.547v-49.439h24.72zM894.774 270.629h24.72v49.438H474.547v-49.438h24.72zM894.774 162.764h24.72v49.439H474.547v-49.439h24.72zM894.774 54.9h24.72v49.438H474.547v-49.439h24.72zM172.872 93.1h246.693l-49.438-49.44V434.033l49.438-49.438H172.872l49.439 49.438v-390.371l-49.439 49.438z m0-49.439V434.033h246.693v-390.372H172.872z"  horiz-adv-x="1093" />

    
    <glyph glyph-name="VPN" unicode="&#58881;" d="M787.8 702.1c-49 0-92.1-19.8-123.5-51.6l-0.3 0.3-1.5-2.3c-13.1-13.7-23.9-29.5-31.8-46.8L555.4 491l-70.7-96.8-96.6-133c-3.1-4.1-5.9-8.3-8.6-12.5l-5.2-7.7 0.5-0.2c-13.2-24.1-20.7-51.7-20.7-81 0-94.3 77.3-170.7 172.7-170.7 95.3 0 172.6 76.4 172.6 170.7 0 81.4-57.6 149.4-134.7 166.5L521.6 262c1.8 0.1 3.5 0.3 5.3 0.3 57.2 0 103.6-45.9 103.6-102.4-0.3-56.4-46.7-102.4-103.9-102.4S423 103.29999999999995 423 159.79999999999995c0 22.4 7.4 42.7 19.7 59.7h0.1l-0.1 0.6v0.1s50.6 71.6 50.4 71.6c0 0 131.8 183.1 132.1 182.5l74.1 109.9c1.7 2.7 3.5 5.4 5.4 7.9l2.2 3.3 0.3-0.3c19 23.4 47.7 38.6 80.4 38.6 57.2 0 103.6-45.9 103.6-102.5s-46.4-102.4-103.6-102.4c-45.3 0-83.4 29-97.4 69.1l-43.4-64.6c31.2-43.9 82.5-72.7 140.8-72.7 95.4 0 172.7 76.4 172.7 170.7 0.1 94.3-77.5 170.8-172.5 170.8zM402.7 486.3l55.4-71 42.2 57.9-116.8 147c-7.2 11.8-15.8 22.8-25.8 32.4l-1.9 2.5-0.4-0.3c-31 29.3-72.8 47.3-119 47.3-95.3 0-172.6-76.5-172.6-170.8s77.3-170.7 172.6-170.7c79.5 0.1 146.3 53.3 166.3 125.7z m-167.4-57.4c-57.2 0-103.6 45.9-103.6 102.4 0 56.6 46.4 102.5 103.6 102.5s103.6-45.9 103.6-102.5c0-56.5-46.4-102.4-103.6-102.4zM620.8 704l0.1-0.2-105.6-146.9-110.2 146.9z"  horiz-adv-x="1024" />

    
    <glyph glyph-name="jia" unicode="&#58885;" d="M1024 437.76H539.136V896h-54.272v-458.24H0V384h484.864v-512h54.272V384H1024z"  horiz-adv-x="1024" />

    
    <glyph glyph-name="yinhangqia1" unicode="&#59031;" d="M887.0462301677038 736.8541458583703h-15.53445925925926c-13.315251313777777 0-22.19208430933333-8.876834209185184-22.19208430933333-22.19208430933333s8.876834209185184-22.19208430933333 22.19208430933333-22.19208430933333h15.53445925925926c11.096042154666666 0 22.19208430933333-8.876834209185184 22.19208552296296-22.19208552296296v-106.5220056557037H119.20010141392589v106.5220056557037c0 11.096042154666666 8.876834209185184 22.19208430933333 22.19208430933333 22.19208552296296h596.9670781155555c13.315251313777777 0 22.19208430933333 8.876834209185184 22.19208430933333 22.19208430933333s-8.876834209185184 22.19208430933333-22.19208430933333 22.19208430933333h-599.1862860610371c-35.50733562311111 0-66.57625414162963-28.849710573037036-66.57625414162963-66.57625414162963v-565.8981583834073c0-35.50733562311111 28.849710573037036-66.57625414162963 66.57625414162963-66.57625414162963h747.8732523899258c35.50733562311111 0 66.57625414162963 28.849710573037036 66.57625414162963 66.57625414162963V670.2778917167407c0 37.72654356859259-31.06891851851852 66.57625414162963-66.57625414162963 66.57625414162963z m22.19208552296296-630.2552045795555c0-11.096042154666666-8.876834209185184-22.19208430933333-22.19208552296296-22.19208430933333H139.17297777777782c-11.096042154666666 0-22.19208430933333 8.876834209185184-22.19208430933333 22.19208430933333V519.3717162287408h790.038213063111v-412.77277494992586zM216.8452740740741 357.3694985860741h310.6891851851852c13.315251313777777 0 22.19208430933333 8.876834209185184 22.19208430933333 22.19208430933333s-8.876834209185184 22.19208430933333-22.19208430933333 22.19208430933333h-310.6891851851852c-13.315251313777777 0-22.19208430933333-8.876834209185184-22.19208430933333-22.19208430933333s11.096042154666666-22.19208430933333 22.19208430933333-22.19208430933333zM618.5220068693334 357.3694985860741h55.480210773333326c13.315251313777777 0 22.19208430933333 8.876834209185184 22.19208552296296 22.19208430933333s-8.876834209185184 22.19208430933333-22.19208552296296 22.19208430933333h-55.480210773333326c-13.315251313777777 0-22.19208430933333-8.876834209185184-22.19208552296296-22.19208430933333s8.876834209185184-22.19208430933333 22.19208552296296-22.19208430933333zM216.8452740740741 237.53224161659261h288.49710087585186c13.315251313777777 0 22.19208430933333 8.876834209185184 22.19208430933333 22.19208430933333s-8.876834209185184 22.19208430933333-22.19208430933333 22.19208430933333h-288.49710087585186c-13.315251313777777 0-22.19208430933333-8.876834209185184-22.19208430933333-22.19208430933333s11.096042154666666-22.19208430933333 22.19208430933333-22.19208430933333z"  horiz-adv-x="1024" />

    
    <glyph glyph-name="weibo" unicode="&#59016;" d="M521.1990464028488-92.8678975894004C249.27637860777747-92.8678975894004 28.94831437026488 127.46016821920216 28.94831437026488 399.1917443371954S249.27637860777747 891.2513862637911 521.0079562968607 891.2513862637911 1013.0675966523665 670.9233204551887 1013.0675966523665 399.1917443371954c0.191091677078182-271.7315761179932-220.13697413152437-492.0596419265958-491.86855024951745-492.0596419265958z m0.9554568143009067 624.6768809018033c-36.11622170474618-20.637841423023534-36.11622170474618-5.923824707433607-34.9696763555471 19.682386179812628 3.2485490837890745 140.45197574015296-240.77481555454784 40.320227602836155-309.75870988025116-142.17179612058655-38.98258900546889-110.8328506318949 23.504208723746245-206.5695043362235 120.0052244231176-248.41845907132517 235.61535441324702-89.81282742580501 407.21518239392327 58.66497518528153 436.45212571911514 154.7838091015865 38.98258900546889 144.27379828408652-73.57008200685962 116.5655852333403-73.57008200685962 116.5655852333403s-33.44094608110166-7.834736764945416-17.58038401631264 18.918021042589903c25.03293742710169 51.97678534062519-15.478380281722648 137.39451676235205-120.57849788326214 80.64045363458233zM713.627807483627 474.6727384015669c11.083285848734494-3.057457406710893 15.669471958800827 6.879279950644512 16.816018879089917 15.860562064789006 1.1465469202890857 8.981282114144499 20.637841423023534 130.51523681170752-103.95357068125038 116.5655852333403-9.363465468300863-1.1465469202890857-15.669471958800827-7.070371627722693-14.71401671558993-15.860563635879014 1.1465469202890857-8.79019200815632 8.025826870933594-13.758561472379021 13.376378118222659-13.18528644114448 5.350551247289063 0.7643651372227249 88.47519039952775 16.242745418945372 81.59591044888322-77.20081444480508 1.3376385973672678-8.59910033107814-4.39509600407816-23.12202536958988 6.879279950644512-26.179482776300777z m-94.7811968900277 232.9400787896025c-8.981282114144499-1.7198203804336283-29.236941754101668-10.127829034433585-29.42803343117986-27.899304727824408-0.191091677078182-17.962565799379 17.771474122300823-29.61912353716804 26.75275780753532-30.383488674390765 33.44094608110166 0 193.19312464691086 9.17237379122268 163.9561828928092-155.35708256173103-4.012914221011799-17.962565799379-7.070371627722693-45.67077885012523 12.994196335156298-51.40351188048065 18.34474758244536-4.968369464222703 29.42803343117986 15.28729017573447 34.587494572480736 30.956762134535296 2.2930938405781713 17.962565799379 76.24535763050417 253.76901188970422-208.8625981768016 234.08662570989156z m-184.40293263875455-513.461848486842c-111.59721576911762-16.433837096023556-210.39132688015715 35.925131598758-220.90133926874708 116.75667691041852-10.318920711511767 80.8315453116605 71.65917152043784 159.75217856580917 183.06529561247726 175.9949239847546 111.59721576911762 16.433837096023556 210.39132688015715-35.925131598758 220.71024759166895-116.7566753393285 10.701102494578127-80.8315453116605-71.27698816628147-159.56108688873104-182.8742039353991-175.99492555584456z m85.03554963866048 168.54237057396554c-8.79019200815632 49.30150971698068-63.25116129534787 79.49390671429325-121.34286302048483 67.64625729942603-58.09170172513699-11.847649414867213-98.22083765089495-61.531340914914246-89.23955553675046-110.8328506318949 8.79019200815632-49.30150971698068 63.25116129534787-79.49390671429325 121.34286302048483-67.64625729942603 58.09170172513699 12.038741091945395 98.02974597381682 61.531340914914246 89.23955553675046 110.8328506318949z m-68.79280421971512-20.828931529011715c-7.452553410789053 0-15.096198498656289 9.554555574289044-15.09620006974629 21.402204989156253 0 11.847649414867213 7.643645087867235 21.402204989156253 15.09620006974629 21.40220656024626 7.452553410789053 0 15.096198498656289-9.554555574289044 15.096198498656289-21.40220656024626 0-11.65655773778903-7.452553410789053-21.402204989156253-15.096198498656289-21.402204989156253z m-59.42934032250426-44.52423192983614c-20.064567962878993 0-36.49840505890254 14.71401671558993-36.498403487812546 33.058764298035285 0 18.34474758244536 16.242745418945372 33.058764298035285 36.498403487812546 33.058764298035285 20.064567962878993 0 36.307313381824365-14.71401671558993 36.307313381824365-33.058764298035285 0-18.153655905367184-16.242745418945372-33.058764298035285-36.307313381824365-33.058764298035285z"  horiz-adv-x="1024" />

    
    <glyph glyph-name="kong" unicode="&#59039;" d="M948.378 375.552h-46.08l-74.343 123.34c-0.102 0.206-0.102 0.36-0.46 0.564 0 0.154 0 0.358-0.205 0.358a6.349 6.349 0 0 1-1.434 1.434 4.096 4.096 0 0 1-1.946 1.075c-0.204 0.359-0.563 0.359-0.972 0.512h-0.359L623.36 566.63c59.494 36.864 87.603 73.216 88.166 73.933a4.506 4.506 0 0 1-0.972 6.298 4.506 4.506 0 0 1-6.298-0.922c-0.563-0.717-29.9-38.502-92.211-75.673l-101.12 32.41a9.574 9.574 0 0 1-5.376 0l-7.936-2.51-216.474-69.324H168.55a23.296 23.296 0 0 1 0-46.49h11.418l-37.171-62.362h-71.68a23.245 23.245 0 1 1 0-46.49h44.032l-18.74-31.436a9.523 9.523 0 0 1-1.075-7.014 9.728 9.728 0 0 1 4.455-5.53l75.878-39.731v-119.245c0-3.226 1.792-6.298 4.66-7.885l2.969-1.638 289.28-162.407a8.858 8.858 0 0 1 8.448-5.734c0.717 0 1.229 0 1.997 0.205h0.102c0.768 0 1.434-0.205 2.355-0.205a11.264 11.264 0 0 1 3.943 0.922l332.851 165.324 1.843 0.922a8.704 8.704 0 0 1 5.018 7.936V232.54999999999995l51.61-1.075a23.194 23.194 0 1 1 0.972 46.439l-52.531 1.075v25.446l59.238 24.679h59.904a23.296 23.296 0 0 1 0.052 46.438zM792.883 493.517L511.078 387.942v127.95a499.61 499.61 0 0 1 91.444 38.604l190.361-60.98zM511.078 525.26v58.521l79.565-25.497a490.342 490.342 0 0 0-79.565-33.024z m-17.97 54.579v-60.006c-36.506-10.24-77.825-17.818-124.724-20.43a4.557 4.557 0 0 1-4.3-4.71 4.557 4.557 0 0 1 4.505-4.25h0.256a591.718 591.718 0 0 1 124.262 20.02v-129.382l-15.053-5.53L221.184 492.8l271.923 87.04z m-303.924-80.026zM116.736 342.99l83.098 139.571L468.48 360.09000000000003l-73.523-162.97-205.21 107.622-73.011 38.247z m278.426-166.195a8.192 8.192 0 0 1 7.014-0.512 9.626 9.626 0 0 1 5.376 4.864l64.563 142.796V21.75999999999999L193.69 177.71500000000003V282.36800000000005l201.472-105.574z m416.102-1.383l-321.126-159.18V336.741l89.036-129.28c2.51-3.584 6.964-4.864 10.957-3.225l221.133 92.62v-121.446z m5.58 143.155c-0.511-0.204-1.074-0.358-1.586-0.768L589.926 223.53999999999996l-95.692 138.855 322.201 120.678 79.36-131.482-78.95-33.024zM485.58-5.22199999999998c-0.92 0-1.638 0.204-2.354 0.204h-0.103c-0.768-0.204-1.28-0.204-1.997-0.204a8.858 8.858 0 0 0-8.448 5.734l-289.28 162.406c-15.206-14.387-23.808-30.054-23.808-46.438 0-70.349 153.344-127.386 342.426-127.386 189.03 0 342.374 57.037 342.374 127.386 0 15.667-7.987 30.618-21.913 44.493L489.626-4.351999999999975a13.056 13.056 0 0 0-4.045-0.87zM816.435 483.123L494.234 362.44500000000005l95.692-138.855 225.332 94.26c0.563 0.41 1.075 0.563 1.587 0.768l78.95 33.075-79.36 131.43zM590.08 204.13400000000001a9.114 9.114 0 0 0-10.957 3.226l-89.037 129.28v-320.512l321.127 159.18V296.654L590.08 204.13400000000001zM511.078 525.26a487.629 487.629 0 0 1 79.565 33.076l-79.565 25.446v-58.521z m0-137.318l281.805 105.575-190.31 60.979c-25.6-14.08-56.115-27.546-91.443-38.605v-127.949z m-33.075-12.39l15.053 5.53V510.464c-36.454-10.035-77.67-17.408-124.16-20.02h-0.256a4.557 4.557 0 0 0-4.506 4.25 4.454 4.454 0 0 0 4.25 4.71 584.704 584.704 0 0 1 124.723 20.43V579.8399999999999L221.184 492.8l256.82-117.248zM472.115 21.75999999999999V323.942l-64.563-142.796a9.626 9.626 0 0 0-8.243-5.428 8.5 8.5 0 0 0-4.147 1.076L193.69 282.36800000000005v-104.653L472.115 21.75999999999999zM394.957 197.12l73.523 162.97-268.646 122.47-83.098-139.571 73.011-38.298zM221.389 569.088c267.417 11.213 405.35 159.59 406.63 161.075 1.639 1.843 1.536 4.66-0.307 6.349s-4.66 1.587-6.298-0.307c-1.382-1.434-136.704-147.098-400.435-158.106a4.608 4.608 0 0 1-4.3-4.71 4.608 4.608 0 0 1 4.505-4.301h0.205z"  horiz-adv-x="1024" />

    
    <glyph glyph-name="kecheng" unicode="&#58890;" d="M996.787309 750.154196c-1.815034 0.26092-18.690715 2.600646-48.777789 2.600646-56.224704 0-155.561098-8.41075-283.086836-52.292368 130.994692 74.191116 265.118999 80.908025 266.951142 80.986443 11.373547 0.461957 20.206332 10.063244 19.760059 21.419682-0.479066 11.390657-10.141663 20.34606-21.415404 19.761485-8.52624-0.345042-167.074373-7.98729-313.77417-102.846695 110.928087 103.553888 273.184707 134.927028 275.317693 135.333379 11.172511 2.07738 18.552413 12.82643 16.513529 23.99894-2.054567 11.172511-12.79934 18.613722-23.97185 16.536342-11.818395-2.184314-271.914326-52.253872-372.444108-244.189789-100.746503 191.496774-360.296355 241.520706-372.11475 243.70502-11.134014 2.031754-21.900174-5.363832-23.977554-16.536342-2.07738-11.211007 5.341019-21.944373 16.536342-23.99894 2.155798-0.400648 164.673338-31.662575 275.622812-135.572912-146.805306 95.060442-305.608656 102.741186-314.142024 103.063416-11.272316 0.685806-20.952022-8.387938-21.413979-19.760059-0.446273-11.373547 8.387938-20.974834 19.760059-21.415404 1.854956-0.082696 136.11899-6.594291 267.336106-81.107636-127.70824 44.004236-227.162975 52.43067-283.448988 52.43067-30.085649 0-46.984142-2.361112-48.799176-2.623458-16.051573-2.3383-27.563422-16.735953-26.355776-32.910144l51.318552-684.664164c1.191963-15.689421 13.99558-28.009695 29.723498-28.570031 254.270143-9.119369 409.809854-124.099559 411.341155-125.230213 5.48645-4.15476 12.057928-6.272061 18.652218-6.272061 4.679451 0 9.380289 1.069344 13.73466 3.225143 2.723264 1.333116 5.139982 3.085415 7.278671 5.064415 19.219684 13.673351 169.697831 115.144156 409.202466 123.698911 15.727918 0.561762 28.532961 12.882036 29.724923 28.571457l51.300016 684.686977C1024.335047 733.433926 1012.838882 747.791657 996.787309 750.154196L996.787309 750.154196zM480.968352-41.089387999999985c-65.413937 36.664256-193.022372 93.59045-369.169063 104.985384l-46.967033 626.407706c3.447566 0.078419 7.156053 0.139728 11.188194 0.139728 71.18412 0 216.865901-14.420466 404.947901-108.934829L480.968352-41.089387999999985 480.968352-41.089387999999985zM912.232107 64.397875c-176.146691-11.374973-303.755125-68.321128-369.191875-105.003919l0 622.615097c188.082 94.520067 333.780891 108.894907 404.963585 108.894907 3.993645 0 7.724944-0.038496 11.172511-0.122618L912.232107 64.397875 912.232107 64.397875zM912.232107 64.397875"  horiz-adv-x="1024" />

    
    </font>
</defs>
</svg>
