<?xml version="1.0" standalone="no"?>
<!DOCTYPE svg PUBLIC "-//W3C//DTD SVG 1.1//EN" "http://www.w3.org/Graphics/SVG/1.1/DTD/svg11.dtd" >
<!--
2013-9-30: Created.
-->
<svg>
<metadata>
Created by iconfont
</metadata>
<defs>

<font id="iconfont_plug" horiz-adv-x="1024" >
  <font-face
    font-family="iconfont_plug"
    font-weight="500"
    font-stretch="normal"
    units-per-em="1024"
    ascent="896"
    descent="-128"
  />
    <missing-glyph />
    
    <glyph glyph-name="16_login_help" unicode="&#59966;" d="M511.488 832c62.08 0 120.288-11.84 174.688-35.552s101.952-55.744 142.656-96.096 72.736-87.776 96.096-142.144S960 445.568 960 383.488 948.32 263.36 924.96 209.28a453.344 453.344 0 0 0-96.096-142.144 451.616 451.616 0 0 0-142.656-96.096C631.808-52.32 573.568-64 511.52-64c-62.08 0-120.128 11.68-174.208 35.04-54.048 23.36-101.44 55.392-142.144 96.096s-72.736 88.096-96.096 142.144C75.68 263.36 64 321.44 64 383.488s11.68 120.288 35.04 174.688 55.392 101.792 96.096 142.144 88.096 72.416 142.144 96.096S449.44 832 511.488 832z m1.024-754.848c17.344 0 31.872 5.824 43.552 17.504s17.504 25.856 17.504 42.56c0 17.344-5.824 31.872-17.504 43.552-11.68 11.68-26.208 17.504-43.552 17.504s-31.872-5.824-43.552-17.504c-11.68-11.68-17.504-26.208-17.504-43.552 0-16.672 5.824-30.88 17.504-42.56s26.176-17.504 43.552-17.504z m51.04 246.272c-0.672 10.688 6.016 22.016 20.032 34.048 14.016 12 29.696 25.376 47.04 40.032 17.344 14.688 33.376 31.2 48.064 49.568s22.688 39.552 24.032 63.584a218.144 218.144 0 0 1-8 73.088 143.584 143.584 0 0 1-33.024 58.56c-15.36 16.352-35.2 29.376-59.552 39.04-24.352 9.664-52.896 14.528-85.6 14.528-40.704 0-74.592-7.168-101.6-21.536s-48.896-31.712-65.568-52.064c-16.672-20.352-28.352-41.376-35.04-63.072-6.688-21.696-9.664-39.872-9.024-54.56 0.672-17.344 6.176-30.048 16.512-38.048 10.336-8 21.536-12.192 33.536-12.512 12-0.32 23.04 3.008 33.024 10.016 10.016 7.008 15.008 17.184 15.008 30.528 0 8 2.496 17.856 7.52 29.536 4.992 11.68 11.84 22.848 20.512 33.536 8.672 10.688 19.2 19.68 31.52 27.04a79.904 79.904 0 0 0 41.536 11.008c30.048 0 54.048-7.52 72.096-22.528 18.016-15.008 26.368-33.856 25.024-56.576 0-11.36-3.328-21.856-10.016-31.52a152.448 152.448 0 0 0-25.536-28.032c-10.336-9.024-21.344-18.016-33.024-27.04-11.68-9.024-22.688-18.368-33.024-28.032-10.336-9.664-19.008-20.192-26.016-31.52s-10.848-23.68-11.52-37.056l0.992-38.048c0-10.016 4.672-19.52 14.016-28.544s21.696-13.856 37.056-14.528c15.36 0.672 27.52 5.664 36.544 15.008s13.184 20.032 12.512 32.032l-0.032 24.064z"  horiz-adv-x="1024" />

    
    <glyph glyph-name="16_warning" unicode="&#59967;" d="M1011.982 53.482L606.673 755.435c-49.575 85.822-130.595 85.822-180.157 0L21.205 53.482c-49.562-85.91-9.015-155.99 90.04-155.99h810.693c99.059 0.001 139.564 70.085 90.044 155.99zM460.924 556.263c14.565 15.747 33.082 23.622 55.665 23.622 22.595 0 41.095-7.792 55.675-23.307 14.485-15.55 21.725-34.997 21.725-58.382 0-20.12-30.235-168.07-40.32-275.704h-72.825c-8.845 107.635-41.652 255.584-41.652 275.704 0.002 23.03 7.254 42.397 21.732 58.067z m110.32-511.801c-15.32-14.92-33.55-22.355-54.65-22.355-21.095 0-39.33 7.435-54.647 22.355-15.275 14.885-22.867 32.915-22.867 54.09 0 21.065 7.592 39.29 22.867 54.565 15.317 15.28 33.552 22.92 54.647 22.92 21.1 0 39.33-7.64 54.65-22.92 15.265-15.275 22.875-33.5 22.875-54.565 0-21.175-7.61-39.205-22.875-54.09z"  horiz-adv-x="1034" />

    
    <glyph glyph-name="12_sketch_group" unicode="&#59965;" d="M856.177 613.717H514.16a19.115 19.115 0 0 0-15.958 9.216l-87.978 138.752a104.448 104.448 0 0 1-88.15 48.982H167.878A171.179 171.179 0 0 1 0.028 636.672v-505.43a171.093 171.093 0 0 1 167.85-173.909h688.299a171.093 171.093 0 0 1 167.85 173.91V439.808a171.093 171.093 0 0 1-167.85 173.91z"  horiz-adv-x="1024" />

    
    <glyph glyph-name="_right_arrow" unicode="&#58900;" d="M640 384c0-19.2-6.4-32-19.2-44.8l-134.4-128c-25.6-25.6-64-25.6-89.6 0-25.6 25.6-25.6 64 0 83.2L492.8 384 403.2 467.2c-25.6 25.6-25.6 64 0 89.6 6.4 6.4 19.2 12.8 25.6 19.2 19.2 6.4 44.8 0 57.6-19.2l128-128c19.2-12.8 25.6-32 25.6-44.8z"  horiz-adv-x="1024" />

    
    <glyph glyph-name="_close_circle" unicode="&#58899;" d="M775.288268 198.43575a54.845189 54.845189 0 0 0-77.692018-77.692018L512.005761 306.462214l-185.590488-185.590489A54.845189 54.845189 0 1 0 248.723255 198.43575L434.441737 384.026239l-185.590489 185.590488A54.845189 54.845189 0 1 0 326.415273 647.308745L512.005761 461.590263l185.590489 185.590489A54.845189 54.845189 0 1 0 775.288268 569.616727L589.569786 384.026239zM512.005761 896a511.973761 511.973761 0 1 1 362.029446-149.944315A511.973761 511.973761 0 0 1 512.005761 896z"  horiz-adv-x="1024" />

    
    <glyph glyph-name="_update_version" unicode="&#58898;" d="M512.831679-127.99936A511.99968 511.99968 0 1 0 1023.99936 384.832319V384.00032a511.61568 511.61568 0 0 0-511.167681-511.99968z m201.151875 609.087619L553.087654 642.048159a56.895964 56.895964 0 0 1-80.447949 0L311.679805 481.088259A56.895964 56.895964 0 0 1 392.191755 400.64031l63.99996 63.99996v-308.031808a56.895964 56.895964 0 0 1 113.791929 0v307.839808l63.99996-63.99996a56.895964 56.895964 0 0 1 80.447949 80.447949z"  horiz-adv-x="1024" />

    
    <glyph glyph-name="_icon_right" unicode="&#58913;" d="M768 354.55999999999995a20.907 20.907 0 0 1-5.12 23.467L610.987 526.933a21.333 21.333 0 0 1-30.294 0 20.907 20.907 0 0 1 0-29.866L695.04 384H277.333a21.333 21.333 0 0 1 0-42.667H695.04L580.693 228.26700000000005a20.907 20.907 0 0 1 0-29.867 21.333 21.333 0 0 1 30.294 0L761.6 347.307a21.333 21.333 0 0 1 6.4 7.253z"  horiz-adv-x="1024" />

    
    <glyph glyph-name="_backpage" unicode="&#58880;" d="M256 383.104a73.92 73.92 0 0 1 20.992-51.776l303.872-310.784a70.4 70.4 0 0 1 100.416 0.896 74.432 74.432 0 0 1 0.832 102.4L428.8 383.104l253.12 258.944a74.496 74.496 0 0 1 19.584 71.232 72.576 72.576 0 0 1-51.2 52.352 70.4 70.4 0 0 1-69.632-19.968L276.992 434.88A74.048 74.048 0 0 1 256 383.104z"  horiz-adv-x="1024" />

    
    <glyph glyph-name="_check_circle" unicode="&#58881;" d="M512-128a512 512 0 1 0 512 512 512 512 0 0 0-512-512z m-45.248 440.256L331.008 448a64 64 0 0 1-90.56-90.496l181.056-181.056a64 64 0 0 1 90.496 0L783.552 448a64 64 0 0 1-90.56 90.496L466.752 312.32z"  horiz-adv-x="1024" />

    
    <glyph glyph-name="_add_new" unicode="&#58882;" d="M576 448h320a64 64 0 0 0 0-128H576v-320a64 64 0 0 0-128 0V320H128a64 64 0 0 0 0 128h320V768a64 64 0 0 0 128 0z"  horiz-adv-x="1024" />

    
    <glyph glyph-name="_close" unicode="&#58883;" d="M616.448 384.896l259.008-258.944a73.28 73.28 0 0 0-103.552-103.616L512.896 281.6l-258.944-259.264a73.28 73.28 0 1 0-103.616 103.616L409.6 384.896 150.336 643.904a73.28 73.28 0 0 0 103.616 103.552l258.944-259.008 259.008 259.008a73.216 73.216 0 0 0 103.552-103.552z"  horiz-adv-x="1024" />

    
    <glyph glyph-name="_down_arrow" unicode="&#58884;" d="M511.232 256a60.736 60.736 0 0 0-43.456 18.112L337.28 405.504a62.272 62.272 0 0 0 0.768 86.848 61.248 61.248 0 0 0 86.208 0.448l86.976-87.296L598.208 492.8a61.44 61.44 0 0 0 103.808-27.392 62.336 62.336 0 0 0-16.768-60.224L554.816 274.112a61.12 61.12 0 0 0-43.584-18.112z"  horiz-adv-x="1024" />

    
    <glyph glyph-name="_ds_colors" unicode="&#58885;" d="M713.586645 197.833134v-139.638749A188.275527 188.275527 0 0 0 523.32725-127.969282 517.725701 517.725701 0 0 0 0.033918 383.9968a517.725701 517.725701 0 0 0 523.293332 511.966082 518.365658 518.365658 0 0 0 451.554084-253.103231 316.331043 316.331043 0 0 0 47.932825-189.043476 117.624207 117.624207 0 0 0-118.904123-116.344293h-47.612846a141.238643 141.238643 0 0 1-142.710545-139.638748z m-224.881102-209.458124a93.113831 93.113831 0 1 1-93.049835 93.113831 93.049835 93.049835 0 0 1 93.049835-93.113831zM256.016959 174.538677a93.113831 93.113831 0 1 1-93.113831 93.113831A93.113831 93.113831 0 0 1 256.016959 174.538677z m-23.294457 279.277498a93.113831 93.113831 0 1 1-93.049835 93.049835 93.113831 93.113831 0 0 1 93.049835-93.049835z m232.75258 139.638749a93.113831 93.113831 0 1 1-93.113831 93.049835 93.049835 93.049835 0 0 1 93.113831-93.049835z m255.983041-69.819375a93.113831 93.113831 0 1 1-93.113831 93.049836 93.049835 93.049835 0 0 1 93.113831-93.049836z"  horiz-adv-x="1024" />

    
    <glyph glyph-name="_brand" unicode="&#58886;" d="M940.8 760.896a45.888 45.888 0 0 1-41.728 5.632L511.296 628.608 125.248 767.296A45.824 45.824 0 0 1 83.2 761.6a45.312 45.312 0 0 1-19.2-37.248v-657.92a45.696 45.696 0 0 1 91.392 0V659.776L495.744 537.6a45.76 45.76 0 0 1 30.912 0l341.824 121.6-0.704-592.448a45.632 45.632 0 0 1 45.632-45.568 45.568 45.568 0 0 1 45.696 45.44L960 723.648a45.44 45.44 0 0 1-19.2 37.248M710.784 275.584A407.168 407.168 0 0 0 512 225.792a407.168 407.168 0 0 0-198.784 49.792 45.568 45.568 0 1 1-44.8-79.296 499.584 499.584 0 0 1 243.584-61.44 499.584 499.584 0 0 1 243.648 61.44 45.568 45.568 0 1 1-44.8 79.296"  horiz-adv-x="1024" />

    
    <glyph glyph-name="_menu" unicode="&#58887;" d="M896 640H128a64 64 0 0 0 0 128h768a64 64 0 0 0 0-128z m0-640H128a64 64 0 0 0 0 128h768a64 64 0 0 0 0-128z m0 320H128a64 64 0 0 0 0 128h768a64 64 0 0 0 0-128z"  horiz-adv-x="1024" />

    
    <glyph glyph-name="_ds_icons" unicode="&#58888;" d="M512-128a512 512 0 1 0 512 512 512 512 0 0 0-512-512z m0 157.568a315.072 315.072 0 0 1 315.072 315.072H196.928A315.072 315.072 0 0 1 512 29.568zM354.432 502.144a78.784 78.784 0 1 1-78.72 78.784 78.784 78.784 0 0 1 78.72-78.784z m315.136 0a78.784 78.784 0 1 1-78.784 78.784 78.784 78.784 0 0 1 78.784-78.784z"  horiz-adv-x="1024" />

    
    <glyph glyph-name="_more" unicode="&#58889;" d="M736 384A96 96 0 1 1 832 480 96 96 0 0 1 736 384M608 384A96 96 0 1 1 512 288 96 96 0 0 1 608 384M288 384A96 96 0 1 1 192 288 96 96 0 0 1 288 384"  horiz-adv-x="1024" />

    
    <glyph glyph-name="_ds_pics" unicode="&#58890;" d="M920.25856 896a103.68 103.68 0 0 0 102.4-103.68v-665.216l-220.16 220.16-104.896-104.832-293.376 293.568L0.00256 131.84V792.32A103.872 103.872 0 0 0 103.68256 896zM697.60256 130.624l104.832 103.68L1024.00256 14.144v-38.4A103.936 103.936 0 0 0 920.25856-128H103.68256A103.872 103.872 0 0 0 0.00256-24.32a102.4 102.4 0 0 0 30.272 73.408L404.22656 423.04z m94.336 435.712A80.384 80.384 0 1 1 711.74656 646.4a80.512 80.512 0 0 1 80.384-80.064z"  horiz-adv-x="1024" />

    
    <glyph glyph-name="_ds_styles" unicode="&#58891;" d="M1011.978996 637.328167L559.719262 879.809012a78.523092 78.523092 0 0 1-95.482032 0L11.977496 637.328167a11.263296 11.263296 0 0 0-10.047372-10.815324c-4.991688-21.502656 0-43.069308 15.103056-48.444972l160.821949-86.266609L42.183608 416.029998a55.484532 55.484532 0 0 1-25.150428-43.069308 48.380976 48.380976 0 0 1 25.150428-43.133304l115.576777-64.379976-115.576777-64.635961a55.612524 55.612524 0 0 1-25.150428-43.133304 48.508968 48.508968 0 0 1 25.150428-43.133304l422.373602-226.289857A77.243172 77.243172 0 0 1 509.482402-127.936004a91.770264 91.770264 0 0 1 50.23686 16.190988l422.373602 226.289857a55.67652 55.67652 0 0 1 25.150428 43.133304 48.380976 48.380976 0 0 1-25.150428 43.133304l-115.576777 64.635961 115.576777 64.699956a55.484532 55.484532 0 0 1 25.150428 43.133304 48.31698 48.31698 0 0 1-25.150428 43.069308L851.221043 491.801262l160.821949 86.266609c5.055684 5.375664 10.047372 5.375664 10.047372 10.751328 4.991688 21.566652-0.063996 43.133304-10.111368 48.508968z m-95.482032-479.970002l-386.919818-209.842885a30.206112 30.206112 0 0 0-30.142116 0l-386.919818 210.162865 125.624149 70.3956 231.153553-123.960252a77.563152 77.563152 0 0 1 45.245172-16.190988 92.666208 92.666208 0 0 1 50.23686 16.190988l231.153553 123.960252z m0 215.602525l-125.624149-70.3956-75.387288-37.75764-190.644085-101.753641a30.334104 30.334104 0 0 0-30.206112 0l-190.900069 102.393601-75.387288 37.75764L102.46784 373.28067l150.710581 80.826948 216.114493-118.584588a78.523092 78.523092 0 0 1 95.482032 0L780.825443 454.107618l135.671521-80.826948z"  horiz-adv-x="1024" />

    
    <glyph glyph-name="_homepage" unicode="&#58892;" d="M942.528 469.248L578.496 800a99.264 99.264 0 0 1-145.152 1.28L82.688 469.568a58.624 58.624 0 0 1-12.8-65.28 61.632 61.632 0 0 1 57.152-36.48h31.552v-337.024A95.488 95.488 0 0 1 255.168-64H346.88a37.056 37.056 0 0 1 37.12 36.928v207.232a32.384 32.384 0 0 0 32 32.32h192a32 32 0 0 0 32-32v-210.112a34.304 34.304 0 0 1 34.304-34.304h94.464a96.384 96.384 0 0 1 97.664 94.784V367.68h31.424a61.312 61.312 0 0 1 57.024 36.416 57.984 57.984 0 0 1-12.352 65.152z"  horiz-adv-x="1024" />

    
    <glyph glyph-name="_refresh" unicode="&#58893;" d="M103.552 470.336a48.576 48.576 0 0 1 62.848 30.272c0 0.96 0.64 1.856 0.896 2.816a323.712 323.712 0 0 0 155.456 189.248 299.84 299.84 0 0 0 236.352 15.872 339.2 339.2 0 0 0 145.92-108.8l-28.928 6.4a49.664 49.664 0 0 1-58.944-39.488v-0.896a55.68 55.68 0 0 1 40.128-64l141.824-34.304a49.472 49.472 0 0 1 59.072 34.944l35.456 128a55.552 55.552 0 0 1-33.088 68.544 49.152 49.152 0 0 1-63.296-31.424l-0.512-1.6-2.368-15.936a447.104 447.104 0 0 1-204.544 159.04 395.328 395.328 0 0 1-313.6-20.864A424.896 424.896 0 0 1 70.4 537.088a55.616 55.616 0 0 1 33.152-66.752zM861.056 299.52a49.216 49.216 0 0 1-64-30.72l-0.768-2.368a324.032 324.032 0 0 0-155.392-189.184 297.792 297.792 0 0 0-236.352-16.576 336.704 336.704 0 0 0-145.92 108.8l28.928-6.72a49.024 49.024 0 0 1 58.688 38.4l0.448 2.112a55.744 55.744 0 0 1-40.192 64l-141.504 34.688a48.832 48.832 0 0 1-59.072-34.88l-39.552-127.424a56.192 56.192 0 0 1 33.024-68.544 48.576 48.576 0 0 1 62.912 30.272c0.384 0.896 0.64 1.856 0.96 2.816l4.096 14.08a449.28 449.28 0 0 1 204.416-159.232 396.288 396.288 0 0 1 314.368 20.8 428.8 428.8 0 0 1 207.36 251.072 56.256 56.256 0 0 1-32.448 68.608z"  horiz-adv-x="1024" />

    
    <glyph glyph-name="_ds_comps" unicode="&#58894;" d="M989.695424 753.854347L526.592293 893.886084A46.207913 46.207913 0 0 1 513.024318 895.99808a44.351917 44.351917 0 0 1-13.311975-1.855997L60.929166 763.070329a37.37593 37.37593 0 0 1-16.895969-4.99199l-8.191984-2.367996a48.767909 48.767909 0 0 1-34.559935-47.231911L0.00128 100.671571a49.343907 49.343907 0 0 1 30.975942-46.143913l462.847132-179.199664a47.103912 47.103912 0 0 1 33.791937 0l464.383129 177.599667a49.087908 49.087908 0 0 1 31.231941 45.887914L1023.99936 706.430435a49.087908 49.087908 0 0 1-34.303936 47.423912z m-456.191144 58.23989l269.951494-81.535847a9.855982 9.855982 0 0 0 0-18.623965L534.272278 624.318589a71.615866 71.615866 0 0 0-44.799916 0L221.312865 712.958423a9.791982 9.791982 0 0 0 0 18.623965L492.800356 812.350237a75.455859 75.455859 0 0 0 40.959923 0z m-429.631195-140.799736L459.520418 554.046721a22.207958 22.207958 0 0 0 15.103972-21.24796v-536.254995a21.695959 21.695959 0 0 0-29.375945-20.671961l-356.479331 138.175741a22.399958 22.399958 0 0 0-14.079974 20.991961l1.023998 515.007034a21.695959 21.695959 0 0 0 28.159947 21.24796z"  horiz-adv-x="1024" />

    
    <glyph glyph-name="_search" unicode="&#58895;" d="M696.064 121.6a377.6 377.6 0 0 0-524.8 33.344 410.304 410.304 0 0 0-8.448 543.936 378.048 378.048 0 0 0 523.456 50.688 409.6 409.6 0 0 0 89.6-535.808l167.616-173.376a63.168 63.168 0 0 0-0.768-86.336 58.112 58.112 0 0 0-83.2-0.768l-163.456 168.32z m-245.12 32.64a272.64 272.64 0 0 1 267.968 277.12 272.64 272.64 0 0 1-267.968 277.12 272.704 272.704 0 0 1-267.968-277.12 272.704 272.704 0 0 1 267.968-276.864z"  horiz-adv-x="1024" />

    
    <glyph glyph-name="_ds_new_group" unicode="&#58896;" d="M896 832H128a64 64 0 0 1-64-64v-768a64 64 0 0 1 64-64h192a64 64 0 0 1 0 128H192V704h640v-128a64 64 0 0 1 128 0V768a64 64 0 0 1-64 64M896 256h-128V384a64 64 0 0 1-128 0v-128H512a64 64 0 0 1 0-128h128v-128a64 64 0 0 1 128 0v128h128a64 64 0 0 1 0 128"  horiz-adv-x="1024" />

    
    <glyph glyph-name="_ds_fonts" unicode="&#58897;" d="M211.2 234.816c0-19.2 14.272-28.8 42.944-28.8a117.888 117.888 0 0 1 78.72 27.904A124.672 124.672 0 0 1 374.272 307.2Q211.2 304.576 211.2 234.816zM896.32 896H128a128 128 0 0 1-128-128v-768.64A128 128 0 0 1 128-128h768.64A128 128 0 0 1 1024-0.32V768a128 128 0 0 1-127.68 128zM391.616 135.424a199.296 199.296 0 0 0-12.8 43.712 177.728 177.728 0 0 0-124.48-51.2 139.712 139.712 0 0 0-86.016 25.984A93.824 93.824 0 0 0 128 234.816q0 139.392 247.168 148.672A67.84 67.84 0 0 1 300.8 449.472a89.6 89.6 0 0 1-80.576-51.2l-75.776 34.432A168.576 168.576 0 0 0 300.8 526.528a139.52 139.52 0 0 0 129.088-57.6 286.208 286.208 0 0 0 27.392-143.04v-41.856c-0.576-18.56-0.896-32-0.896-40.832a313.6 313.6 0 0 1 15.616-107.776z m460.8 57.6A150.592 150.592 0 0 0 725.76 128a163.84 163.84 0 0 0-116.288 45.568v-38.4H527.104V704h82.368v-218.304a155.392 155.392 0 0 0 111.68 40.832 156.352 156.352 0 0 0 126.336-58.496A206.656 206.656 0 0 0 896 330.496a222.912 222.912 0 0 0-43.904-137.472zM715.648 446.656a97.856 97.856 0 0 1-76.8-34.368 125.952 125.952 0 0 1-29.312-84.544 126.976 126.976 0 0 1 29.312-88.256 100.992 100.992 0 0 1 81.472-33.472 78.72 78.72 0 0 1 69.568 40.896 154.88 154.88 0 0 1 21.952 83.584 134.4 134.4 0 0 1-24.64 83.648 84.224 84.224 0 0 1-71.552 32.512z"  horiz-adv-x="1024" />

    


  </font>
</defs>
</svg>
