<?xml version="1.0" standalone="no"?>
<!DOCTYPE svg PUBLIC "-//W3C//DTD SVG 1.1//EN" "http://www.w3.org/Graphics/SVG/1.1/DTD/svg11.dtd" >
<svg xmlns="http://www.w3.org/2000/svg">
<defs>
  <font id="zabbix-icons" horiz-adv-x="600">
    <font-face font-family="zabbix-icons"
      units-per-em="600" ascent="450"
      descent="150" />
    <missing-glyph horiz-adv-x="0" />
    <glyph glyph-name="alert-check"
      unicode="&#xEA01;"
      horiz-adv-x="600" d="M494.97 390H105C80.24999 390 60 369.75001 60 345V-90C110.91 -19.8000000000001 180.47999 30.00001 216.62999 30.00001H494.97C519.71999 30.00001 540 50.25 540 75.00001V345C540 369.75001 519.71999 390 494.97 390zM416.39999 265.86L274.53 115.38C265.26 105.78 250.26 105.78 241.02 115.38L181.11 179.37001C171.84 189.00001 171.84 204.6 181.11 214.1999999999999C190.35 223.8299999999999 205.35 223.8299999999999 214.59 214.1999999999999L257.76 167.67001L382.91999 300.66001C392.15999 310.29001 407.19 310.29001 416.39999 300.66001C425.66999 291.09001 425.66999 275.49 416.39999 265.86z" />
    <glyph glyph-name="alert-more"
      unicode="&#xEA02;"
      horiz-adv-x="600" d="M494.97 390H105C80.25001 390 60 369.75001 60 345V-90C110.91 -19.8000000000001 180.48 30.00001 216.63 30.00001H494.97C519.7199999999999 30.00001 540 50.25 540 75.00001V345C540 369.75001 519.7199999999999 390 494.97 390zM179.52 180C162.96 180 149.52 193.44 149.52 210S162.96 240.00001 179.52 240.00001S209.52001 226.56 209.52001 210S196.08 180 179.52 180zM299.52 180C282.96 180 269.52 193.44 269.52 210S282.96 240.00001 299.52 240.00001S329.52001 226.56 329.52001 210S316.08 180 299.52 180zM419.5200099999999 180C402.9600099999999 180 389.5199999999999 193.44 389.5199999999999 210S402.9600099999999 240.00001 419.5200099999999 240.00001S449.52 226.56 449.52 210S436.08001 180 419.5200099999999 180z" />
    <glyph glyph-name="alert-x"
      unicode="&#xEA03;"
      horiz-adv-x="600" d="M108.50636 390C84.171975 390 64.315515 370.114079 64.315515 345.80916V-90C114.30999 -21.06245 182.591 36.47326 218.12036 36.47326H491.43608C515.77058 36.47326 535.68448 56.41673 535.68448 80.72165V345.80916C535.68448 370.1435380000001 515.79848 390 491.49368 390zM375.66532 316.23352C381.99022 316.39452 388.34718 313.88682 393.04245 308.7533200000001C401.91005 299.0902200000001 401.54665 283.76753 392.23745 274.51693L337.80445 219.50853L338.03445 219.27853L329.40335 210.70503L392.75505 148.15889C402.0057500000001 138.84939 401.61285 124.08406 391.95005 115.2459C382.28695 106.3785 367.02178 106.7996 357.77118 116.1089L302.7628 170.54167L302.5328 170.31167L295.8006000000001 177.10147L289.0684 170.31167L288.8384000000001 170.54167L233.8291600000001 116.10863C224.57856 106.79893 209.25578 106.43533 199.59276 115.30363C189.9297600000001 124.14173 189.53627 138.84953 198.7867600000001 148.1590200000001L262.1388800000001 210.76271L253.5653800000001 219.27861L253.79538 219.50861L199.36217 274.51699C190.05247 283.7675900000001 189.63147 299.0328 198.4991700000001 308.69585C202.91827 313.52735 208.8320200000001 316.02875 214.78304 316.1760500000001C220.73404 316.32305 226.7574 314.12675 231.4121500000001 309.50135L295.7420400000001 244.3086400000001L360.18702 309.5016500000001C364.55092 313.8240500000001 370.08452 316.0917500000001 375.66533 316.2338500000001z" />
    <glyph glyph-name="alert"
      unicode="&#xEA04;"
      horiz-adv-x="600" d="M540 75C540 50.3 519.7 30 495 30H216.5C180.4 30 111 -19.8000000000001 60 -90V345C60 369.7 80.2 390 105 390H495C519.7 390 540 369.7 540 345V75z" />
    <glyph glyph-name="arrow-back"
      unicode="&#xEA05;"
      horiz-adv-x="600" d="M306.22052 243.3477900000001C244.09534 243.3477900000001 187.81064 216.94559 144.40703 174.0220000000001L59.999999 270.03V30.01001H271.05758L186.17051 126.53805C218.77322 157.46062 260.25668 176.66222 306.22052 176.66222C389.2274300000001 176.66222 459.83332 115.05709 484.43536 29.97001L540 50.77174C507.4372700000001 162.54105 415.2695900000001 243.3477900000001 306.22052 243.3477900000001z" />
    <glyph glyph-name="arrow-down"
      unicode="&#xEA06;"
      horiz-adv-x="600" d="M540.0000000000006 149.2080000000002L372.0000000000006 149.2080000000002L372.0000000000006 389.2080000000002L228.0000000000006 389.2080000000001L228.0000000000006 149.2080000000002L60.0000000000006 149.2080000000002L300.0000000000007 -89.2079999999999z" />
    <glyph glyph-name="arrow-forward"
      unicode="&#xEA07;"
      horiz-adv-x="600" d="M293.77948 243.3477900000001C355.90466 243.3477900000001 412.18936 216.94559 455.59297 174.0220000000001L540 270.03V30.01001H328.9424200000001L413.82949 126.53805C381.22678 157.46062 339.74332 176.66222 293.77948 176.66222C210.77257 176.66222 140.16668 115.05709 115.56464 29.97001L59.999999 50.77174C92.562729 162.54105 184.73041 243.3477900000001 293.77948 243.3477900000001z" />
    <glyph glyph-name="arrow-left"
      unicode="&#xEA08;"
      horiz-adv-x="600" d="M539.2079999999993 221.9999999999999L299.2079999999993 221.9999999999999L299.2079999999993 389.9999999999999L60.7919999999993 149.9999999999999L299.2079999999993 -90L299.2079999999993 77.9999999999999L539.2079999999993 77.9999999999999z" />
    <glyph glyph-name="arrow-right-top"
      unicode="&#xEA09;"
      horiz-adv-x="600" d="M540 -20.87807H239.00171C208.6203 -20.87807 183.6625 4.14907 183.6625 34.53082V178.67639H60.000001L202.20168 320.87807L344.40336 178.67639H219.21291V34.53082C219.21291 23.22934 227.70051 14.67234 239.00171 14.67234H540z" />
    <glyph glyph-name="arrow-right"
      unicode="&#xEA0A;"
      horiz-adv-x="600" d="M300.7919999999999 221.9999999999999L60.7919999999999 221.9999999999999L60.7919999999999 77.9999999999999L300.7919999999999 77.9999999999999L300.7919999999999 -90.0000000000001L539.2079999999999 149.9999999999999L300.7919999999999 389.9999999999999z" />
    <glyph glyph-name="arrow-top-right"
      unicode="&#xEA0B;"
      horiz-adv-x="600" d="M60 352.777765V124.76042C60 94.62749 84.82247 69.87377 114.95574 69.87377H398.96125V-52.7777600000001L540 88.26099L398.96125 229.29974V105.13346H114.95574C103.74669 105.13346 95.25968 113.55146 95.25968 124.76042V352.777765z" />
    <glyph glyph-name="arrow-up"
      unicode="&#xEA0C;"
      horiz-adv-x="600" d="M539.9999999999977 150.7919999999999L299.9999999999978 389.2079999999998L59.9999999999977 150.7919999999999H227.9999999999978V-89.2080000000002H371.9999999999978V150.7919999999998z" />
    <glyph glyph-name="arrows-left-right"
      unicode="&#xEA0D;"
      horiz-adv-x="600" d="M59.999585 251.652217L198.347741 385.222737V285.536164H333.883529L333.917413 217.76827L198.347741 217.802154V118.047814zM539.999579 48.348535L401.651423 -85.2219850000001V14.4645879999999H266.115635L266.081751 82.2324819999999L401.651423 82.1985979999999V181.9529379999999z" />
    <glyph glyph-name="arrows-top-bottom"
      unicode="&#xEA0E;"
      horiz-adv-x="600" d="M268.047814 48.3481409999999L401.652217 -90.0000150000001L535.2227369999999 48.3481409999999H435.536164V183.883929L367.7682700000001 183.917813L367.8021540000001 48.3481409999999zM331.952938 251.651823L198.348535 389.999979L64.778015 251.651823H164.464588V116.116035L232.232482 116.082151L232.198598 251.6518230000001z" />
    <glyph glyph-name="bell-off"
      unicode="&#xEA0F;"
      horiz-adv-x="600" d="M437.14294 197.14289C437.14294 260.94863 393.29149 314.1258000000001 334.2857400000001 329.41724V355.714396C334.2857400000001 374.674406 318.96002 390.000129 300.0000100000001 390.000129C281.04 390.000129 265.7142700000001 374.674406 265.7142700000001 355.714396V329.41724C265.3032700000001 329.31424 264.9942700000001 329.14324 264.5828700000001 329.0402400000001L437.14298 156.48005zM300.00001 -90.0001299999999C337.88574 -90.0001299999999 368.57147 -59.2801199999999 368.57147 -21.42867H231.42855C231.42855 -59.2801199999999 262.14856 -90.0001299999999 300.00001 -90.0001299999999zM539.7601399999999 -41.76011L539.52014 -42.03511L107.75989 389.827992L59.999865 341.9308200000001L168.27422 233.65648C165.01712 221.96505 162.85712 209.89647 162.85712 197.17645V94.35425L94.285605 25.7485H376.18291L491.86297 -89.96584L540.00013 -41.9658199999999z" />
    <glyph glyph-name="bell"
      unicode="&#xEA10;"
      horiz-adv-x="600" d="M299.9999900000001 -90C337.88571 -90 368.57143 -59.28 368.57143 -21.42857H231.42857C231.42857 -59.28 262.14857 -90 299.9999900000001 -90zM437.1428400000001 94.2857099999999V197.14285C437.1428400000001 260.94857 393.3257000000001 314.12572 334.2857 329.41714V355.7142800000001C334.2857 374.67428 318.95999 390 299.9999900000001 390C281.03999 390 265.71428 374.67428 265.71428 355.7142800000001V329.41714C206.67429 314.12572 162.89143 260.94857 162.89143 197.14285V94.32L94.285717 25.71429H505.71428z" />
    <glyph glyph-name="bullet-alt-down"
      unicode="&#xEA11;"
      horiz-adv-x="600" d="M299.98169 389.74528A76.095003 76.095003 0 0 1 223.91398 313.67757A76.095003 76.095003 0 0 1 269.54427 243.96606V24.49626H210.42643L299.98169 -90.22542L389.58862 24.49626H330.36743L330.41911 243.96606A76.095003 76.095003 0 0 1 376.10107 313.67757A76.095003 76.095003 0 0 1 299.98169 389.74528z" />
    <glyph glyph-name="bullet-alt-left"
      unicode="&#xEA12;"
      horiz-adv-x="600" d="M539.98535 150.02583A76.095003 76.095003 0 0 1 463.91764 226.09354A76.095003 76.095003 0 0 1 394.2061300000001 180.46325H174.7363300000001V239.58109L60.01465 150.0258300000001L174.7363300000001 60.4189000000001V119.6400900000001L394.2061300000001 119.5884100000001A76.095003 76.095003 0 0 1 463.91764 73.9064500000001A76.095003 76.095003 0 0 1 539.98535 150.0258300000001z" />
    <glyph glyph-name="bullet-alt-right"
      unicode="&#xEA13;"
      horiz-adv-x="600" d="M60.01465 149.97417A76.095003 76.095003 0 0 1 136.08236 73.90646A76.095003 76.095003 0 0 1 205.79387 119.53674H425.26367V60.4189L539.98535 149.97417L425.26367 239.58109V180.35992L205.79387 180.4116A76.095003 76.095003 0 0 1 136.08236 226.09355A76.095003 76.095003 0 0 1 60.01465 149.97417z" />
    <glyph glyph-name="bullet-alt-up"
      unicode="&#xEA14;"
      horiz-adv-x="600" d="M300.02582 -89.98535A76.095003 76.095003 0 0 1 376.0935300000001 -13.91764A76.095003 76.095003 0 0 1 330.46325 55.79387V275.26367H389.58109L300.02582 389.985347L210.4189 275.26367H269.64007L269.58839 55.79387A76.095003 76.095003 0 0 1 223.90644 -13.91764A76.095003 76.095003 0 0 1 300.02582 -89.98535z" />
    <glyph glyph-name="bullet-down"
      unicode="&#xEA15;"
      horiz-adv-x="600" d="M300.1226499999987 -90.2372599999978L210.5740539999987 24.5140000000022L269.6846499999988 24.5140000000022L269.6846499999988 176.7040000000022L330.5606499999987 176.7344380000022L330.5302119999987 24.5140000000022L389.7016839999987 24.5140000000022zM296.3178999999983 389.7700000000015A76.095 76.095 0 0 0 296.3178999999983 237.5800000000027A76.095 76.095 0 0 0 296.3178999999983 389.7700000000015" />
    <glyph glyph-name="bullet-left"
      unicode="&#xEA16;"
      horiz-adv-x="600" d="M326.7344380000026 119.4393500000004L174.5140000000026 119.4697880000004V60.2983160000005L59.7627400000026 149.8773500000004L174.5140000000026 239.4259460000004V180.3153500000004H326.7040000000026zM539.7700000000015 153.6821000000018A76.095 76.095 0 0 0 387.5800000000027 153.6821000000018A76.095 76.095 0 0 0 539.7700000000015 153.6821000000018" />
    <glyph glyph-name="bullet-right"
      unicode="&#xEA17;"
      horiz-adv-x="600" d="M273.2959999999992 180.3153500000008L273.2655619999992 119.4393500000007L425.4859999999991 119.4697880000008V60.2983160000008L540.2372599999991 149.8773500000008L425.4859999999991 239.4259460000008V180.3153500000008zM60.2299999999985 153.6821000000018A76.095 76.095 0 0 1 212.4199999999974 153.6821000000018A76.095 76.095 0 0 1 60.2299999999985 153.6821000000018" />
    <glyph glyph-name="bullet-up"
      unicode="&#xEA18;"
      horiz-adv-x="600" d="M269.4697880000007 275.485999999998L210.2983160000007 275.485999999998L299.8773500000007 390.237259999998L389.4259460000007 275.485999999998L330.3153500000007 275.485999999998L330.3153500000007 123.295999999998L269.4393500000007 123.265561999998zM303.6821000000018 -89.7700000000015A76.095 76.095 0 0 0 303.6821000000018 62.4199999999974A76.095 76.095 0 0 0 303.6821000000018 -89.7700000000015" />
    <glyph glyph-name="calendar-check"
      unicode="&#xEA19;"
      horiz-adv-x="600" d="M479.973875 329.9887V360.166814C479.973875 376.575788 466.564713 389.9849500000001 450.1557390000001 389.9849500000001H449.7957600000001C433.3867860000001 389.9849500000001 419.9776240000001 376.575788 419.9776240000001 360.166814V329.9887H329.98325V360.166814C329.98325 376.575788 316.574088 389.9849500000001 300.165114 389.9849500000001H299.805136C283.396162 389.9849500000001 269.987 376.575788 269.987 360.166814V329.9887H179.992625V360.166814C179.992625 376.575788 166.583463 389.9849500000001 150.174489 389.9849500000001H149.81451C133.405536 389.9849500000001 119.996374 376.575788 119.996374 360.166814V329.9887H60.000124V-53.3273409999999C60.000124 -73.486081 76.499093 -89.98505 96.657833 -89.98505H503.342413C523.501153 -89.98505 540.000123 -73.486081 540.000123 -53.3273409999999V329.9887zM479.973875 -7.730191C479.973875 -20.029423 470.014497 -29.9888 457.715266 -29.9888H142.224986C129.9257540000001 -29.9888 119.9663760000001 -20.029423 119.9663760000001 -7.730191V269.99245H479.9438760000001V-7.730191zM242.088744 35.6770960000001C251.358164 26.077696 266.357227 26.077696 275.596649 35.6770960000001L417.457782 186.14769C426.697205 195.777088 426.697205 211.376113 417.457782 220.975513C408.21836 230.604911 393.219297 230.604911 383.979875 220.975513L258.827697 87.993826L215.690394 134.520918C206.450971 144.150316 191.421911 144.150316 182.212486 134.520918C172.943066 124.921518 172.943066 109.322493 182.212486 99.693094z" />
    <glyph glyph-name="calendar-warning"
      unicode="&#xEA1A;"
      horiz-adv-x="600" d="M479.9160000000001 330.0246999999985V360.2026879999985C479.9160000000001 376.6115939999985 466.506894 390.0206999999985 450.0979880000001 390.0206999999985H449.7380120000001C433.329106 390.0206999999985 419.9200000000002 376.6115939999985 419.9200000000002 360.2026879999985V330.0246999999985H329.9260000000001V360.2026879999985C329.9260000000001 376.6115939999985 316.5168940000002 390.0206999999985 300.1079880000001 390.0206999999985H299.7480120000001C283.3391060000001 390.0206999999985 269.9300000000001 376.6115939999985 269.9300000000001 360.2026879999985V330.0246999999985H179.9360000000001V360.2026879999985C179.9360000000001 376.6115939999985 166.5268940000001 390.0206999999985 150.1179880000001 390.0206999999985H149.7580120000001C133.3491060000001 390.0206999999985 119.9400000000001 376.6115939999985 119.9400000000001 360.2026879999985V330.0246999999985H59.9440000000001V-53.2897440000015C59.9440000000001 -73.4484000000015 76.4429000000001 -89.9473000000015 96.6015560000001 -89.9473000000015H503.2844420000001C523.4430980000001 -89.9473000000015 539.9419980000001 -73.4484000000015 539.9419980000001 -53.2897440000015V330.0246999999985zM479.9160000000001 -7.6927840000016C479.9160000000001 -19.9919640000016 469.956664 -29.9513000000016 457.657484 -29.9513000000016H142.168518C129.869338 -29.9513000000016 119.910002 -19.9919640000016 119.910002 -7.6927840000016V270.0286999999989H479.886002V-7.6927840000012zM299.9279999999999 90.0406999999987C316.4868959999999 90.0406999999987 329.9259999999999 103.4798039999987 329.9259999999999 120.0386999999987V210.0326999999987C329.9259999999999 226.5915959999988 316.4868959999999 240.0306999999987 299.9279999999999 240.0306999999987S269.9299999999999 226.5915959999988 269.9299999999999 210.0326999999987V120.0386999999987C269.9299999999999 103.4798039999987 283.3691039999999 90.0406999999987 299.9279999999999 90.0406999999987zM269.9300000000022 30.0446999999991A29.998 29.998 0 0 1 329.9260000000004 30.0446999999991A29.998 29.998 0 0 1 269.9300000000022 30.0446999999991" />
    <glyph glyph-name="calendar"
      unicode="&#xEA1B;"
      horiz-adv-x="600" d="M149.80998 390.003662C133.40102 390.003662 119.99268 376.595318 119.99268 360.186361V330.00732H59.996338V-53.3284500000001C59.996338 -73.48717 76.476209 -89.9670400000001 96.634928 -89.9670400000001H503.32845C523.4871699999999 -89.9670400000001 540.0187199999999 -73.48717 540.0187199999999 -53.3284500000001V330.00732H479.9707V360.1863610000001C479.9707 376.595318 466.56236 390.003662 450.1533999999999 390.003662H449.79167C433.38271 390.003662 419.9743699999999 376.595318 419.9743699999999 360.1863610000001V330.0073200000001H330.0057V360.1863610000001C330.0057 376.595318 316.59736 390.003662 300.1884 390.003662H299.82666C283.4177 390.003662 270.00936 376.595318 270.00936 360.1863610000001V330.0073200000001H179.98901V360.1863610000001C179.98901 376.595318 166.58067 390.003662 150.17171 390.003662H149.80998zM119.941 270.01099H479.91903V-7.7498399999999H479.9707000000001C479.9707000000001 -20.04905 469.99735 -29.9707 457.6981600000001 -29.9707H142.21354C129.91431 -29.9707 119.941 -20.04903 119.941 -7.7498399999999V270.01099zM167.69002 195.85531V142.93864H220.60669V195.8553100000001H167.69002zM273.52336 195.85531V142.93864H326.44002V195.8553100000001H273.52336zM379.35669 195.85531V142.93864H432.2733600000001V195.8553100000001H379.35669zM167.69002 90.02197V37.10531H220.60669V90.02197H167.69002zM273.52336 90.02197V37.10531H326.44002V90.02197H273.52336zM379.35669 90.02197V37.10531H432.2733600000001V90.02197H379.35669z" />
    <glyph glyph-name="check"
      unicode="&#xEA1C;"
      horiz-adv-x="600" d="M530.43742 319.91206C517.74733 333.29215 497.1071699999999 333.38216 484.38706 319.91206L230.91509 52.69996L115.5942 174.26092C102.87409 187.67102 82.263928 187.67102 69.573828 174.26092C56.823728 160.85081 56.793728 139.10064 69.573828 125.75053L207.69491 -19.9906C214.1150100000001 -26.7107 222.51502 -30.0107 230.91509 -29.9807C239.3150900000001 -30.0107 247.71522 -26.7106 254.10527 -19.9906L530.43742 271.40167C543.1875299999999 284.81178 543.1875299999999 306.50195 530.43742 319.91206z" />
    <glyph glyph-name="checkbox"
      unicode="&#xEA1D;"
      horiz-adv-x="600" d="M497.6726400000001 390.000001H102.29735C79.04881 390.000001 60 370.98119 60 347.70264V-47.70264C60 -70.95119 79.01881 -90 102.29735 -90H497.70264C520.95119 -90 540 -70.98119 540 -47.70264V347.70264C539.97 370.98119 520.95119 390.000001 497.6726400000001 390.000001zM241.45865 14.45347L240.37815 15.5339700000001L239.29766 14.45347L127.04581 126.70645L169.46315 169.12381L240.34872 98.23824L419.25754 277.1470500000001L461.67489 234.7297z" />
    <glyph glyph-name="chevron-double-down"
      unicode="&#xEA1E;"
      horiz-adv-x="600" d="M519.3979559055118 162.1926141732283A24.9448818897638 24.9448818897638 0 0 0 512.0278771653543 144.5233228346456L335.3349637795276 -32.2640787401575L317.5711842519686 -49.9333700787402L299.9018929133859 -67.6026614173228L282.2326015748032 -49.9333700787402L264.5633102362206 -32.2640787401575L87.8703940157481 144.5233228346457A24.9547672440945 24.9547672440945 0 1 0 123.1144913385828 179.8619055118111L299.9018929133859 3.1689921259843L476.5948062992127 179.8619055118111A24.9448818897638 24.9448818897638 0 0 0 519.3979559055119 162.1926141732284zM519.3979559055118 340.3973385826772A24.9448818897638 24.9448818897638 0 0 0 512.0278771653543 322.7280472440945L335.3349637795276 146.0351338582677L317.5711842519686 128.365842519685L299.9018929133859 110.602062992126L282.2326015748032 128.365842519685L264.5633102362206 146.0351338582677L87.8703940157481 322.7280472440945A25.0393700787402 25.0393700787402 0 1 0 123.1144913385827 358.1611218897638L299.9018929133859 181.3737165354331L476.5948062992127 358.0666337007874A24.9448818897638 24.9448818897638 0 0 0 519.4924440944883 340.4918267716535z" />
    <glyph glyph-name="chevron-double-left"
      unicode="&#xEA1F;"
      horiz-adv-x="600" d="M312.0944881889764 369.496062992126A24.9448818897638 24.9448818897638 0 0 1 294.4251968503937 362.1259842519685L117.6377952755906 185.4330708661417L99.9685039370079 167.6692913385827L82.2992125984252 150L99.9685039370079 132.3307086614174L117.6377952755906 114.6614173228347L294.4251968503937 -62.0314960629921A24.9448818897638 24.9448818897638 0 1 1 329.7637795275591 -26.7874015748031L153.0708661417323 150L329.7637795275591 326.6929133858268A24.9448818897638 24.9448818897638 0 0 1 312.0944881889765 369.496062992126zM490.2992125984252 369.496062992126A24.9448818897638 24.9448818897638 0 0 1 472.6299212598426 362.1259842519685L295.9370078740158 185.4330708661417L278.2677165354331 167.6692913385827L260.5039370078741 150L278.2677165354331 132.3307086614174L295.9370078740158 114.6614173228347L472.6299212598426 -62.0314960629921A25.0393700787402 25.0393700787402 0 1 1 508.0629921259844 -26.7874015748031L331.2755905511811 150L507.9685039370079 326.6929133858268A24.9448818897638 24.9448818897638 0 0 1 490.3937007874017 369.5905511811024z" />
    <glyph glyph-name="chevron-double-right"
      unicode="&#xEA20;"
      horiz-adv-x="600" d="M286.7184283464568 369.496062992126A24.9448818897638 24.9448818897638 0 0 0 304.3877196850394 362.1259842519685L481.1751212598425 185.4330708661417L498.8444125984252 167.6692913385827L516.5137039370078 150L498.8444125984252 132.3307086614173L481.1751212598425 114.6614173228346L304.3877196850394 -62.0314960629922A24.9547672440945 24.9547672440945 0 1 0 269.049137007874 -26.7874015748032L445.7420503937008 150L269.049137007874 326.6929133858268A24.9448818897638 24.9448818897638 0 0 0 286.7184283464566 369.496062992126zM108.5137039370079 369.496062992126A24.9448818897638 24.9448818897638 0 0 0 126.1829952755906 362.1259842519685L302.8759086614174 185.4330708661417L320.5452 167.6692913385827L338.3089795275591 150L320.5452 132.3307086614173L302.8759086614174 114.6614173228346L126.1829952755906 -62.0314960629922A25.0393700787402 25.0393700787402 0 1 0 90.7499206299213 -26.7874015748032L267.537325984252 150L90.8444088188977 326.6929133858268A24.9448818897638 24.9448818897638 0 0 0 108.4192157480315 369.5905511811024z" />
    <glyph glyph-name="chevron-double-up"
      unicode="&#xEA21;"
      horiz-adv-x="600" d="M519.3979559055118 136.816525984252A24.9448818897638 24.9448818897638 0 0 1 512.0278771653543 154.4858173228346L335.3349637795276 331.2732188976378L317.5711842519686 348.9425102362204L299.9018929133859 366.611802519685L282.2326015748032 348.9425102362204L264.5633102362206 331.2732188976378L87.8703940157481 154.4858173228346A24.9547681889764 24.9547681889764 0 1 1 123.1144913385828 119.1472346456693L299.9018929133859 295.8401480314961L476.5948062992127 119.1472346456693A24.9448818897638 24.9448818897638 0 0 1 519.3979559055119 136.8165259842519zM519.3979559055118 -41.3881984251969A24.9448818897638 24.9448818897638 0 0 1 512.0278771653543 -23.7189070866142L335.3349637795276 152.9740062992125L317.5711842519686 170.6432976377952L299.9018929133859 188.4070771653543L282.2326015748032 170.6432976377952L264.5633102362206 152.9740062992125L87.8703940157481 -23.7189070866142A25.0393700787402 25.0393700787402 0 1 1 123.1144913385828 -59.151977952756L299.9018929133859 117.6354236220472L476.5948062992127 -59.0574897637796A24.9448818897638 24.9448818897638 0 0 1 519.4924440944883 -41.4826866141733z" />
    <glyph glyph-name="chevron-down"
      unicode="&#xEA22;"
      horiz-adv-x="600" d="M526.81371 222.8684L299.99307 2.28782L73.20936 222.8684C55.59688 240.00086 55.59688 267.76728 73.20936 284.8628300000001C90.82183 301.9953 119.32673 301.9953 136.9392 284.8628300000001L300.0300000000001 126.23977L463.1208 284.8628300000001C480.73327 301.9953000000001 509.23815 301.9953000000001 526.85064 284.8628300000001C544.3892699999999 267.6934300000001 544.3892699999999 240.00086 526.81371 222.8684z" />
    <glyph glyph-name="chevron-left"
      unicode="&#xEA23;"
      horiz-adv-x="600" d="M372.8684 376.813711L152.28782 149.99307L372.8684 -76.79064C390.00086 -94.4031200000001 417.76728 -94.4031200000001 434.86283 -76.79064C451.9952999999999 -59.17817 451.9952999999999 -30.6732700000001 434.86283 -13.0608L276.23977 150.03L434.86283 313.1208000000001C451.9952999999999 330.73327 451.9952999999999 359.238151 434.86283 376.850641C417.6934299999999 394.389271 390.00086 394.389271 372.8684 376.813711z" />
    <glyph glyph-name="chevron-right"
      unicode="&#xEA24;"
      horiz-adv-x="600" d="M227.1316 376.813711L447.71218 149.99307L227.1316 -76.79064C209.99914 -94.4031200000001 182.23272 -94.4031200000001 165.13717 -76.79064C148.0047 -59.17817 148.0047 -30.6732700000001 165.13717 -13.0608L323.76023 150.03L165.13717 313.1208000000001C148.0047 330.73327 148.0047 359.238151 165.13717 376.850641C182.30657 394.389271 209.99914 394.389271 227.1316 376.813711z" />
    <glyph glyph-name="chevron-up"
      unicode="&#xEA25;"
      horiz-adv-x="600" d="M526.81371 77.1316L299.99307 297.71218L73.20936 77.1316C55.59688 59.99914 55.59688 32.23272 73.20936 15.13717C90.82183 -1.9952999999999 119.32673 -1.9952999999999 136.9392 15.13717L300.0300000000001 173.76023L463.1208 15.13717C480.73327 -1.9952999999999 509.23815 -1.9952999999999 526.85064 15.13717C544.3892699999999 32.3065700000001 544.3892699999999 59.99914 526.81371 77.1316000000001z" />
    <glyph glyph-name="circle-check-filled"
      unicode="&#xEA26;"
      horiz-adv-x="600" d="M300.02584 390.01119A240.00001 240.00001 0 0 1 59.98881 150.02584A240.00001 240.00001 0 0 1 300.02584 -90.01119A240.00001 240.00001 0 0 1 540.0111899999999 150.02584A240.00001 240.00001 0 0 1 300.02584 390.01119zM407.0994100000001 260.09664L444.8232 222.37284L249.0212 26.5708399999999L248.0392 27.5008399999999L247.1092 26.5708399999999L147.32198 126.3580299999999L185.04578 164.08183L248.03935 101.03658z" />
    <glyph glyph-name="circle-check"
      unicode="&#xEA27;"
      horiz-adv-x="600" d="M299.98169 390.003662C167.98182 390.003662 59.996338 282.01818 59.996338 150.01831C59.996338 18.01843 167.98182 -90.01872 299.98169 -90.01872C431.9815699999999 -90.01872 540.0187199999999 18.01843 540.0187199999999 150.01831C540.0187199999999 282.01818 431.9815699999999 390.003662 299.98169 390.003662zM299.98169 341.99626C405.58159 341.99626 492.01131 255.61819 492.01131 150.01831C492.01131 44.41841 405.58159 -42.01131 299.98169 -42.01131C194.38181 -42.01131 108.00374 44.41841 108.00374 150.01831C108.00374 255.61819 194.38181 341.99626 299.98169 341.99626zM407.10693 260.08911L248.04687 101.02905L185.0533 164.0743L147.32951 126.3505L247.1167000000001 26.5633099999999L248.0468700000001 27.49349L249.02873 26.5633099999999L444.8307300000001 222.36532L407.1069300000001 260.0891099999999z" />
    <glyph glyph-name="circle-info-filled"
      unicode="&#xEA28;"
      horiz-adv-x="600" d="M300 389.999995C167.44001 389.999995 60 282.5600100000001 60 149.97333C60 17.4133399999999 167.44001 -89.99999 300 -89.99999C432.5599900000001 -89.99999 540 17.4133399999999 540 149.97333C540 282.56 432.5599900000001 389.999995 300 389.999995zM326.66666 16.64001H273.33334V176.69333H326.66666zM326.66666 230H273.33334V283.33333H326.66666z" />
    <glyph glyph-name="circle-info"
      unicode="&#xEA29;"
      horiz-adv-x="600" d="M299.98169 390.003662C167.98182 390.003662 59.996338 282.01818 59.996338 150.01831C59.996338 18.01843 167.98182 -90.01872 299.98169 -90.01872C431.9815699999999 -90.01872 540.0187199999999 18.01843 540.0187199999999 150.01831C540.0187199999999 282.01818 431.9815699999999 390.003662 299.98169 390.003662zM299.98169 341.99626C405.58159 341.99626 492.01131 255.61819 492.01131 150.01831C492.01131 44.41841 405.58159 -42.01131 299.98169 -42.01131C194.38181 -42.01131 108.00374 44.41841 108.00374 150.01831C108.00374 255.61819 194.38181 341.99626 299.98169 341.99626zM273.31665 283.3435100000001V230.01343H326.64673V283.3435100000001H273.31665zM273.31665 176.68335V16.64144H326.64673V176.68335H273.31665z" />
    <glyph glyph-name="circle-question-filled"
      unicode="&#xEA2A;"
      horiz-adv-x="600" d="M299.97416 390.011191A240.00001 240.00001 0 0 1 59.988809 150.02583A240.00001 240.00001 0 0 1 299.97416 -90.0111899999999A240.00001 240.00001 0 0 1 540.01119 150.02583A240.00001 240.00001 0 0 1 299.97416 390.011191zM293.97969 298.3372000000001C305.76634 298.3372000000001 316.7793200000001 296.7763 327.25932 293.7897000000001C337.71263 290.723 346.88618 286.2755 354.6995000000001 280.3021500000001C362.5128000000001 274.38215 368.6663200000001 267.0113 373.1996700000001 258.1846400000001C377.6796700000001 249.35794 379.9692700000001 239.11879 379.9692700000001 227.3854800000001C379.9692700000001 216.2921600000001 378.0182700000001 206.3899000000001 374.2848700000001 197.7232100000001C370.5248700000001 189.0565100000001 365.7554700000001 181.0786400000001 360.0221700000001 173.74535C354.2888700000001 166.4386500000001 348.1603800000001 159.9933800000001 341.5736900000001 154.36669C334.9603900000001 148.73999 328.7802200000001 143.09519 323.0735300000001 137.46849C317.3402300000001 131.81519 312.59753 125.9785 308.8108300000001 119.8985C305.0508300000001 113.8185 303.1264300000001 107.10469 303.1264300000001 99.7447C303.1264300000001 93.5314 303.9814300000001 87.8599 305.5552300000001 82.8465C307.1552300000001 77.8064 308.7878300000001 73.5241 310.36113 70.03075V69.97907H264.4207800000001C263.1141800000001 73.57907 261.9200800000001 78.32517 260.9067800000001 84.13841C259.86678 89.89841 259.40818 95.53662 259.40818 101.24331C259.40818 110.04331 261.15758 118.02291 264.73088 125.1695C268.2508800000001 132.3695 272.73168 139.08504 278.01173 145.27163C283.2917300000001 151.48493 289.00831 157.44174 295.1683 163.25503C301.355 168.98833 307.04316 174.65993 312.37655 180.15323C317.6298500000001 185.64653 322.08405 191.38484 325.6574 197.46483C329.2308000000001 203.59813 330.9801 210.23692 330.9801 217.46361C330.9801 223.94361 329.7177 229.61024 327.1044000000001 234.51683C324.4910000000001 239.29013 320.8905000000001 243.32913 316.3039100000001 246.60909C311.7439100000001 249.86239 306.51251 252.24219 300.6459500000001 253.89549C294.7792500000001 255.46879 288.47735 256.27259 281.78406 256.27259C260.13074 256.27259 239.5790200000001 246.63879 219.97904 227.38546V277.56327C243.7656900000001 291.3766 268.4597100000001 298.3372000000001 293.97969 298.3372000000001zM289.2254900000001 44.14083C297.46549 44.14083 304.7411800000001 41.29913 310.98127 35.45913C317.08797 30.0991299999999 320.07627 23.33861 320.07627 15.09862C320.07627 6.99192 317.08787 0.17972 310.98127 -5.31357C304.60797 -10.94017 297.33208 -13.73687 289.2254900000001 -13.73687C280.93219 -13.73687 273.6113300000001 -10.9402699999999 267.2113300000001 -5.31357C261.10453 0.1797300000001 258.1163300000001 6.9920300000001 258.1163300000001 15.09862C258.1163300000001 23.33862 261.1047300000001 30.12574 267.2113300000001 35.45913C273.4513300000001 41.29913 280.7989000000001 44.14083 289.2254900000001 44.14083z" />
    <glyph glyph-name="circle-question"
      unicode="&#xEA2B;"
      horiz-adv-x="600" d="M299.98169 390.003662C167.98195 390.003662 59.996338 282.01805 59.996338 150.01831C59.996338 18.01856 167.98195 -90.01872 299.98169 -90.01872C431.98144 -90.01872 540.0187199999999 18.01856 540.0187199999999 150.01831C540.0187199999999 282.01805 431.98144 390.003662 299.98169 390.003662zM299.98169 341.99626C405.5814800000001 341.99626 492.01131 255.61808 492.01131 150.01831C492.01131 44.4185199999999 405.5814800000001 -42.01131 299.98169 -42.01131C194.38192 -42.01131 108.00374 44.4185199999999 108.00374 150.01831C108.00374 255.61808 194.38192 341.99626 299.98169 341.99626zM293.98722 306.02946C268.46725 306.02946 243.77315 299.06885 219.98657 285.25553V235.07772C239.58655 254.33101 260.13821 263.96484 281.79159 263.96484C288.48478 263.96484 294.78649 263.1608299999999 300.65348 261.58773C306.52048 259.93443 311.75145 257.5546499999999 316.31144 254.30135C320.89794 251.02135 324.49882 246.98235 327.11182 242.20907C329.72581 237.30247 330.98755 231.63583 330.98755 225.15584C330.98755 217.92915 329.23787 211.29036 325.66488 205.15706C322.09198 199.0770699999999 317.63703 193.33874 312.38403 187.84546C307.05074 182.3521599999999 301.36278 176.68056 295.17578 170.94727C289.01579 165.1339699999999 283.2992 159.17716 278.01921 152.9638699999999C272.73941 146.7773 268.25836 140.06173 264.73836 132.86174C261.16437 125.71516 259.41569 117.73554 259.41569 108.93555C259.41569 103.22885 259.87471 97.59063 260.91431 91.83065C261.92731 86.01745 263.12131 81.2713 264.4283 77.67131H310.36865V77.72298C308.79565 81.21633 307.16274 85.49865 305.56274 90.53874C303.98375 95.55213 303.13395 101.22364 303.13395 107.43693C303.13395 114.79692 305.05836 121.51075 308.81836 127.59074C312.60506 133.67072 317.34806 139.50744 323.08105 145.16073C328.78765 150.78742 334.96822 156.43222 341.58122 162.05892C348.16791 167.68559 354.29671 174.1309 360.0297 181.43758C365.7634 188.77085 370.5324 196.74876 374.2924 205.41545C378.0254 214.08212 379.97681 223.98442 379.97681 235.07772C379.97681 246.81101 377.68719 257.05019 373.20719 265.87687C368.6738 274.70351 362.52002 282.0744 354.70703 287.99438C346.89374 293.96773 337.72014 298.41525 327.26685 301.48193C316.78696 304.46853 305.77381 306.02946 293.9872199999999 306.02946zM287.6827 51.83309C279.9093200000001 51.4995 273.06883 48.62635 267.2188300000001 43.1514500000001C261.1118400000001 37.81805 258.12378 31.0309200000001 258.12378 22.79093C258.12378 14.6843400000001 261.1118400000001 7.87204 267.2188300000001 2.3787400000001C273.61882 -3.2479499999999 280.94 -6.0445099999999 289.23299 -6.0445099999999C297.33958 -6.0445099999999 304.6157800000001 -3.2478499999999 310.98877 2.3787400000001C317.09576 7.8720400000001 320.08382 14.6842500000001 320.08382 22.79093C320.08382 31.03093 317.09576 37.79145 310.98877 43.1514500000001C304.74868 48.9914400000001 297.47298 51.83309 289.23299 51.83309C288.70633 51.83309 288.20092 51.8553300000001 287.6827 51.83309z" />
    <glyph glyph-name="circle-warning-filled"
      unicode="&#xEA2C;"
      horiz-adv-x="600" d="M300 -89.99999C167.44001 -89.99999 60 17.4400000000001 60 150.02667C60 282.5866700000001 167.44001 389.999995 300 389.999995C432.5599900000001 389.999995 540 282.5866700000001 540 150.02667C540 17.44001 432.5599900000001 -89.99999 300.0000000000001 -89.99999zM326.6666600000001 283.36H273.33334V123.30667H326.6666600000001zM326.6666600000001 70H273.33334V16.6666700000001H326.6666600000001z" />
    <glyph glyph-name="circle-warning"
      unicode="&#xEA2D;"
      horiz-adv-x="600" d="M299.98169 -90.01872C167.98182 -90.01872 59.996338 17.9667599999999 59.996338 149.96663C59.996338 281.96651 167.98182 390.003662 299.98169 390.003662C431.9815699999999 390.003662 540.0187199999999 281.96651 540.0187199999999 149.96663C540.0187199999999 17.9667599999999 431.9815699999999 -90.01872 299.98169 -90.01872zM299.98169 -42.01132C405.58159 -42.01132 492.01131 44.36675 492.01131 149.96663C492.01131 255.56653 405.58159 341.9962499999999 299.98169 341.9962499999999C194.38181 341.9962499999999 108.00374 255.56653 108.00374 149.96663C108.00374 44.3667499999999 194.38181 -42.01132 299.98169 -42.01132zM273.31665 16.64143V69.97151H326.64673V16.64143zM273.31665 123.30159V283.3435H326.64673V123.30159z" />
    <glyph glyph-name="clock"
      unicode="&#xEA2E;"
      horiz-adv-x="600" d="M300.0000120000001 389.999882C168.000013 389.999882 60.000014 281.999882 60.000014 149.999884C60.000014 17.9998850000001 168.000014 -90.000114 300.0000120000001 -90.000114C432.0000110000001 -90.000114 540.00001 17.9998859999999 540.00001 149.999884C540.00001 281.999883 432.00001 389.999882 300.000012 389.999882zM300.0000120000001 -42.000114C194.400012 -42.000114 108.000014 44.399885 108.000014 149.999884C108.000014 255.599884 194.400013 341.999882 300.0000120000001 341.999882C405.600012 341.999882 492.00001 255.599883 492.00001 149.999884C492.00001 44.399884 405.6000110000001 -42.000114 300.0000120000001 -42.000114zM312.0000120000001 269.999883H276.0000120000001V125.999884L400.8000120000001 49.199884L420.0000110000001 80.399884L312.0000110000001 145.199884z" />
    <glyph glyph-name="cog-filled"
      unicode="&#xEA2F;"
      horiz-adv-x="600" d="M300.05169 389.9964320000001C277.0627 389.9964320000001 254.05878 376.592582 246.15317 349.74049L243.3109700000001 340.12869A26.192061 26.192061 0 0 0 205.69052 324.52239L196.90553 329.3283C147.70201 356.090063 93.942391 302.27938 120.73447 253.10556L125.48867 244.32056A26.192061 26.192061 0 0 0 109.88239 206.70012L100.27059 203.85792C46.566421 188.04699 46.566421 111.92379 100.27059 96.11256L109.88239 93.32206A26.192061 26.192061 0 0 0 125.48867 55.64995L120.68277 46.86495C93.920681 -2.33888 147.70199 -56.17987 196.90551 -29.3577900000001L205.69051 -24.6035900000001A26.192061 26.192061 0 0 0 243.3109500000001 -40.1582L246.1531500000001 -49.7183000000001C261.9643700000001 -103.4224800000001 338.0872700000001 -103.4224800000001 353.8985100000001 -49.7183000000001L356.7923900000001 -40.1582A26.192061 26.192061 0 0 0 394.4128300000001 -24.6035900000001L403.1978300000001 -29.4094900000001C452.4016500000001 -56.2012600000001 506.1909700000001 -2.3089100000001 479.3688900000001 46.8649199999999L474.6146900000001 55.6499199999999A26.192061 26.192061 0 0 0 490.2209400000001 93.3220299999999L499.7294400000001 96.1125299999999C553.4336200000001 111.9237699999999 553.4336200000001 188.0469599999999 499.7294400000001 203.8578899999999L490.2209600000001 206.70013A26.192061 26.192061 0 0 0 474.61467 244.3205699999999L479.4205700000001 253.1055699999999C506.2126500000001 302.3093799999999 452.3716800000001 356.0687019999999 403.1978400000001 329.2766199999999L394.4128400000001 324.5224199999999A26.192061 26.192061 0 0 0 356.7924100000001 340.1286999999999L353.8985300000001 349.7404999999999C345.9929 376.592623 323.04097 389.9964320000001 300.05169 389.9964320000001zM300.00001 217.39715A67.385303 67.385303 0 0 0 367.38608 150.01108A67.388155 67.388155 0 0 0 232.61394 150.01108A67.385303 67.385303 0 0 0 300.00001 217.39715z" />
    <glyph glyph-name="cog"
      unicode="&#xEA30;"
      horiz-adv-x="600" d="M300.0285 389.999996C277.03949 389.999996 254.02378 376.594936 246.11816 349.74282L243.30696 340.1328200000001A26.192061 26.192061 0 0 0 205.68667 324.54565L196.89688 329.35082C147.69331 356.112616 93.926979 302.28809 120.71909 253.11422L125.46579 244.32442A26.192061 26.192061 0 0 0 109.87837 206.70447L100.26827 203.8902700000001C46.564042 188.0793200000001 46.564042 111.93933 100.26827 96.12809L109.87837 93.31689A26.192061 26.192061 0 0 0 125.46579 55.63811L120.66059 46.84831C93.898469 -2.3555699999999 147.69331 -56.1515999999999 196.89688 -29.32949L205.68668 -24.58309A26.192061 26.192061 0 0 0 243.30694 -40.17022L246.11824 -49.72182C261.9294799999999 -103.42605 338.0694699999999 -103.42605 353.8807199999999 -49.72182L356.7520199999999 -40.17022A26.192061 26.192061 0 0 0 394.3722199999999 -24.5831199999999L403.1616199999999 -29.38832C452.36549 -56.18011 506.16182 -2.3255799999999 479.3397099999999 46.8483L474.593 55.63809A26.192061 26.192061 0 0 0 490.1801300000001 93.31686L499.7317300000001 96.12806C553.43596 111.93931 553.43596 188.0793 499.7317300000001 203.89025L490.1801700000001 206.70447A26.192061 26.192061 0 0 0 474.5930400000001 244.3244300000001L479.3982400000001 253.1142300000001C506.1903300000001 302.3181000000001 452.3354900000001 356.0841260000001 403.1616100000001 329.2920200000001L394.3722100000001 324.5456200000001A26.192061 26.192061 0 0 0 356.7518600000001 340.1327800000001L353.8806600000001 349.7427800000001C345.9750200000001 376.594936 323.01781 389.999996 300.0285 389.999996zM300.0285 359.997626C310.73931 359.997626 321.41839 353.772126 325.10867 341.24615L327.9799700000001 331.63605A56.194422 56.194422 0 0 1 408.7283000000001 298.17622L417.4596 302.98142C440.38134 315.43243 465.50952 290.42246 453.02854 267.47095L448.2236400000001 258.68115A56.194422 56.194422 0 0 1 481.7419800000001 177.93249L491.2346800000001 175.12129C516.28664 167.74079 516.28664 132.28303 491.2346800000001 124.90244L481.6830800000001 122.09114A56.194422 56.194422 0 0 1 448.2235800000001 41.28399L453.0284800000001 32.5530899999999C465.47951 9.63127 440.4113500000001 -15.43872 417.45953 -2.9577300000001L408.72825 1.78894A56.194422 56.194422 0 0 1 327.9799 -31.67089L325.1086 -41.22249C317.728 -66.27446 282.27033 -66.27446 274.88975 -41.22249L272.0786 -31.67089A56.194422 56.194422 0 0 1 191.33025 1.78894L182.5404499999999 -3.01626C159.61865 -15.4672100000001 134.54897 9.6012599999999 147.02965 32.55306L151.8348499999999 41.28396A56.194422 56.194422 0 0 1 118.3753 122.0912099999999L108.7649999999999 124.90251C83.7133289999999 132.2830099999999 83.7133289999999 167.74077 108.7649999999999 175.1213599999999L118.3753 177.93256A56.194422 56.194422 0 0 1 151.8348399999999 258.68116L147.02965 267.4709499999999C134.57898 290.39245 159.58864 315.46243 182.54046 302.98145L191.33026 298.17625A56.194422 56.194422 0 0 1 272.0786 331.63607L274.8899 341.24617C278.58011 353.772146 289.31766 359.997626 300.0285 359.997626zM300.0285 247.37147A97.390478 97.390478 0 1 1 300.0285 52.59074A97.390478 97.390478 0 0 1 300.0285 247.37147zM300.0285 217.36911A67.385303 67.385303 0 0 0 367.4168 149.98111A67.388155 67.388155 0 0 0 232.64049 149.98111A67.385303 67.385303 0 0 0 300.0285 217.36911z" />
    <glyph glyph-name="collapse"
      unicode="&#xEA31;"
      horiz-adv-x="600" d="M75.0236220472441 374.9763779527559V172.015748031496L150.8031496062992 247.7007874015748L250.2992125984252 148.2047244094487L301.7952755905513 199.7007874015747L202.2047244094488 299.1968503937008L277.984251968504 374.9763779527559H74.9291338582677zM325.0393700787402 374.9763779527559V324.992125984252H474.992125984252V-24.992125984252H125.0078740157481V124.9606299212599H74.9291338582677V-75.0708661417323H524.9763779527559V375.0708661417323H325.0393700787402z" />
    <glyph glyph-name="command"
      unicode="&#xEA32;"
      horiz-adv-x="600" d="M290.199226 17.324594C290.199226 34.560848 304.1880690000001 48.549691 321.424323 48.549691H508.774905C526.011159 48.549691 540.000002 34.560848 540.000002 17.324594S526.011159 -13.900503 508.774905 -13.900503H321.424323C304.1880690000001 -13.900503 290.199226 0.08834 290.199226 17.324594zM245.797138 172.263525L113.309051 304.751612C101.100039 316.960625 81.334552 316.960625 69.156764 304.751612C56.978977 292.542599 56.947751 272.777112 69.156764 260.599325L179.756058 150.00003L69.156764 39.400738C56.947751 27.191725 56.947751 7.426238 69.156764 -4.75155C81.365777 -16.960563 101.131264 -16.960563 113.309051 -4.75155L245.797138 127.736537C251.948482 133.887881 254.946091 141.943957 254.914866 150.000031C254.977316 158.056106 251.948482 166.112181 245.797138 172.263525z" />
    <glyph glyph-name="copy"
      unicode="&#xEA33;"
      horiz-adv-x="600" d="M338.57142 72.85714H145.71428V25.7143H338.57142zM338.57142 180.00001H145.71428V132.8571500000001H338.57142zM175.71428 385.71429V291.42858H60V-85.7142899999999H424.28571V8.57143H540V385.71429zM368.57142 -28.2171399999999H115.71428V235.7143H368.57142zM482.26286 66.0685700000001H424.28571V291.42858H231.42857V322.18286H482.26286z" />
    <glyph glyph-name="dashboard"
      unicode="&#xEA34;"
      horiz-adv-x="600" d="M125.0078740157481 324.992125984252A49.8897637795276 49.8897637795276 0 0 1 74.9291338582677 274.9133858267716V24.992125984252C74.9291338582677 -2.6929133858267 97.3228346456693 -25.0866141732284 125.0078740157481 -25.0866141732284H474.992125984252C502.6771653543308 -25.0866141732284 525.0708661417324 -2.6929133858268 525.0708661417324 24.992125984252V275.0078740157481A49.8897637795276 49.8897637795276 0 0 1 474.992125984252 325.0866141732284H125.0078740157481zM112.5354330708662 287.48031496063H275.0551181102362V199.9842519685039H112.4409448818898V287.48031496063zM300 287.48031496063H487.4645669291339V124.9606299212598H300V287.48031496063zM112.5354330708662 175.0393700787402H275.0551181102362V12.51968503937H112.4409448818898V175.0393700787402zM300 100.015748031496H487.4645669291339V12.51968503937H300V100.015748031496z" />
    <glyph glyph-name="download"
      unicode="&#xEA35;"
      horiz-adv-x="600" d="M300.15486 325.19756C298.63536 325.21077 297.20916 325.1996700000001 295.97426 325.1447H295.5092600000001C284.9976000000001 325.1447 276.5672500000001 316.663 276.5672500000001 306.1514200000001V180.00941L212.30919 179.90341V179.85056C201.5214100000001 179.01056 192.7601900000001 165.02674 203.01919 154.86998L289.83197 68.05713C295.48357 62.39333 304.67112 62.39333 310.3222800000001 68.05713L397.0834 154.87027C407.14107 165.03205 398.47605 178.8908 387.74135 179.74752L388.05135 180.05752L323.79329 179.95152V306.09302C323.79329 316.6052 315.31139 325.08656 304.79974 325.08656C303.27494 325.13942 301.67404 325.16585 300.1546400000001 325.19256zM75.019388 124.8362800000001A15.000609 15.000609 0 0 1 60.000013 109.81691V34.82337A60.002437 60.002437 0 0 1 120.0257 -25.20259H480.02583A60.002437 60.002437 0 0 1 539.99999 34.82337V109.81691A15.000609 15.000609 0 0 1 510.01304 109.81691V40.13945H89.986966V109.81691A15.000609 15.000609 0 0 1 75.019388 124.8362799999999z" />
    <glyph glyph-name="drag-handle"
      unicode="&#xEA36;"
      horiz-adv-x="600" d="M326.6666600000001 -90V-36.66666H380V-90zM326.6666600000001 70.00001H380V16.66667H326.66666zM326.6666600000001 176.66667H380V123.3333299999999H326.66666zM326.6666600000001 283.33334H380V230.00001H326.66666zM326.6666600000001 390.000002H380V336.66667H326.66666zM220 -36.66666H273.33334V-90H220zM220 70.00001H273.33334V16.66667H220zM220 176.66667H273.33334V123.3333299999999H220zM220 283.33334H273.33334V230.00001H220zM220 390.000003H273.33334V336.66667H220z" />
    <glyph glyph-name="envelope-filled"
      unicode="&#xEA37;"
      horiz-adv-x="600" d="M300.015 91.826314L525.929119 317.7404340000001C517.918619 325.3009060000001 507.237951 330.0112000000001 495.417212 330.0112000000001H104.582786C92.792049 330.0112000000001 82.08138 325.3009060000001 74.070879 317.7404330000001zM421.852614 149.99995L510.958184 60.894381C519.7487319999999 52.103831 519.7487319999999 37.852941 510.958184 29.062391C506.577909 24.6821179999999 500.8175489999999 22.461979 495.057189 22.461979C489.296829 22.461979 483.536469 24.652116 479.156196 29.062392L390.050626 118.167961L315.9459960000001 44.063329C311.5657220000001 39.683056 305.8053620000001 37.4629170000001 300.0450020000001 37.4629170000001C294.284642 37.4629170000001 288.5242820000001 39.6530540000001 284.1440080000001 44.063329L210.0393770000001 118.1679610000001L120.9338080000001 29.062391C116.5535340000001 24.6821179999999 110.7931740000001 22.461979 105.0328140000001 22.461979C99.2724540000001 22.461979 93.5120940000001 24.652116 89.1318210000001 29.062392C80.3412710000001 37.852942 80.3412710000001 52.103832 89.1318210000001 60.894382L178.2373890000001 149.99995L60 268.177336V14.571486C60 -9.970047 80.071254 -30.0112999999999 104.582786 -30.0112999999999H495.417212C519.958746 -30.0112999999999 539.999998 -9.940046 539.999998 14.571486V268.1773360000001z" />
    <glyph glyph-name="envelope"
      unicode="&#xEA38;"
      horiz-adv-x="600" d="M104.86609 330.27323C80.250571 330.27323 60.000001 310.00427 60.000001 285.36642V14.63359C60.000001 -10.00429 80.250571 -30.27324 104.86609 -30.27324H495.13392C519.7494399999999 -30.27324 540 -10.00429 540 14.63359V285.36642C540 310.00427 519.7494399999999 330.27323 495.13392 330.27323zM104.86609 297.6654H495.13392C498.5410199999999 297.6654 501.48162 296.4072 503.6528199999999 294.3581000000001L300.33559 90.85633L96.708618 294.71984C98.839538 296.55165 101.66224 297.66544 104.86609 297.6654zM92.578252 236.79056L181.7425 147.59705L125.41465 91.11471C116.85185 82.54411 116.85185 68.67945 125.41465 60.10885C129.68145 55.80885 135.24075 53.70095 140.8519 53.70095C146.463 53.70095 152.07393 55.83815 156.34075 60.10885L212.72024 116.5395L284.89836 44.29586C289.16516 39.99586 294.7760600000001 37.83626 300.38722 37.83626C305.99832 37.83626 311.60926 40.02516 315.87609 44.29586L388.10585 116.5395L444.4337 60.10885C448.7005 55.80885 454.3114 53.7009499999999 459.92256 53.7009499999999C465.5336599999999 53.7009499999999 471.0929599999999 55.8381499999999 475.3598 60.10885C483.9225999999999 68.67945 483.9225999999999 82.54408 475.3598 91.11471L419.03195 147.59705L507.42175 236.11877V14.63359C507.42175 7.5555899999999 502.2054499999999 2.33459 495.13392 2.33459H104.86609C97.79456 2.33459 92.578252 7.5555899999999 92.578252 14.63359z" />
    <glyph glyph-name="expand"
      unicode="&#xEA39;"
      horiz-adv-x="600" d="M540 124.88L459.8000000000001 44.72L354.48 150L300 95.52L405.28 -9.76L325.04 -90H540zM540 190H500V390H540zM500 350H100V390H500zM100 -50H60V390H100zM260 -90H60V-50H260z" />
    <glyph glyph-name="eye-alt-off"
      unicode="&#xEA3A;"
      horiz-adv-x="600" d="M168.00008 364.940592C165.92818 364.883407 163.87704 364.22705 162.05729 362.925212L140.97331 347.88737C136.12065 344.4158 135.02127 337.70219 138.49284 332.84953L419.87101 -60.4598C423.3425799999999 -65.31246 430.05619 -66.4118400000001 434.90885 -62.94027L455.94116 -47.90243C460.79382 -44.43086 461.8932 -37.71724 458.4216299999999 -32.8645799999999L419.50928 21.5507000000001C496.4783099999999 70.1682500000001 540.0187199999999 150.0183100000001 540.0187199999999 150.0183100000001S449.98145 315.02116 299.98169 315.02116C271.33297 315.02116 244.91849 308.9163200000001 220.8650699999999 299.1564900000001L177.04346 360.444743C174.87373 363.477656 171.45325 365.035902 168.00008 364.940592zM299.98169 284.9971500000001H300.03337C363.60994 284.97812 416.4033100000001 249.96593 455.06266 211.30656A393.9898800000001 393.9898800000001 0 0 0 504.82707 150.01831C503.0876699999999 147.40831 501.17783 144.53824 498.98763 141.38835C488.93778 126.98849 474.11263 107.7798 455.0626599999999 88.73006C439.57601 73.2435800000001 421.8026599999999 58.3065600000001 401.99097 45.9936500000001L377.75472 79.8933900000001A104.99996 104.99996 0 0 1 404.9882 150.0183100000001A104.99996 104.99996 0 0 1 300.1884 255.0248200000001A104.99996 104.99996 0 0 1 292.12687 254.7147600000001A104.99996 104.99996 0 0 1 258.64054 246.3431800000001L238.90015 273.9900700000001C257.92561 280.8857700000001 278.3182700000001 284.99067 299.98169 284.9971500000001zM145.77922 252.75106C90.593712 205.99245 59.996338 150.01831 59.996338 150.01831S149.98217 -14.98454 299.98169 -14.98454C312.08808 -14.98454 323.81273 -13.91173 335.12166 -11.9356300000001L315.32959 15.71126C310.29529 15.2632599999999 305.1608 14.98779 299.98169 14.98779C236.38195 14.98779 183.62248 50.06043 144.95239 88.73006A394.0198800000001 394.0198800000001 0 0 0 95.136312 150.01831H95.239665A393.9898800000001 393.9898800000001 0 0 0 145.00407 211.30656C150.77086 217.0823 156.91002 222.74725 163.29753 228.25643L145.77922 252.75106zM299.98169 225.00081A75.000033 75.000033 0 0 0 359.87467 104.90479L276.72729 221.0734A75.000033 75.000033 0 0 0 299.98169 225.00081zM199.05762 178.28532A104.99996 104.99996 0 0 1 194.97518 150.01831A104.99996 104.99996 0 0 1 294.14225 45.32186L267.52889 82.58057A75.000033 75.000033 0 0 0 225.72266 140.97493L199.05762 178.28532z" />
    <glyph glyph-name="eye-alt"
      unicode="&#xEA3B;"
      horiz-adv-x="600" d="M300 314.99998C150.00017 314.99998 60 150 60 150S150.00017 -14.99997 300 -14.99997C450.00006 -14.99997 540 150 540 150S450.00006 314.99997 300 314.99998zM300 284.99992C363.59987 284.99992 416.36906 249.9589000000001 455.039 211.28896A393.9898800000001 393.9898800000001 0 0 0 504.84385 150C503.1044499999999 147.39 501.1743499999999 144.5365 498.98415 141.38671C488.93436 126.98679 474.08901 107.76082 455.039 88.71105C416.36884 50.04133 363.5698 15.0001 300 15.0001C236.40013 15.0001 183.63094 50.04133 144.96077 88.71104A394.0198800000001 394.0198800000001 0 0 0 95.15637 150.0000099999999H95.22319A393.9898800000001 393.9898800000001 0 0 0 145.02781 211.2889699999999C183.6378400000001 249.9589099999999 236.4083800000001 284.99993 300.0082500000001 284.99993zM292.1484 254.70722A104.99996 104.99996 0 0 1 195.00016 150A104.99996 104.99996 0 0 1 404.99988 150A104.99996 104.99996 0 0 1 292.1484 254.70722zM300 225.00003A75.000034 75.000034 0 0 0 300 74.99998A75.000034 75.000034 0 0 0 300 225.00003z" />
    <glyph glyph-name="eye-off"
      unicode="&#xEA3C;"
      horiz-adv-x="600" d="M287.28081 65.40527C220.20501 72.78487 173.76791 136.68082 189.84691 202.43672zM300.00003 38.46696C214.53536 38.46696 139.93002 83.3441599999999 100.00252 150.02999C118.12138 180.2981 143.4098 206.09649 173.61792 225.20528L150.66935 257.4832800000001C115.84153 235.13467 86.59335 205.19654 65.534682 170.00874C58.155082 157.67951 58.155082 142.35047 65.534682 130.02124C112.51173 51.57613 200.10626 -0.92058 299.97003 -0.92058C311.00937 -0.92058 322.0486400000001 -0.2605800000001 332.9979600000001 1.02932L306.32962 38.5569599999999C304.25982 38.4969599999999 302.12982 38.46683 300.00012 38.46683zM534.46538 130.0212399999999C506.7771 83.7641199999999 464.9597199999999 46.5664499999999 414.83284 23.79788L454.94035 -32.5986C458.12015 -37.0382 457.0102499999999 -43.18795 452.4804499999999 -46.3077500000001L435.20156 -58.2170100000001C430.67188 -61.3368100000001 424.43228 -60.25689 421.28245 -55.7871400000001L145.1197 332.59859C141.93987 337.03827 143.04981 343.18793 147.57957 346.30773L164.85849 358.216973C169.38819 361.336863 175.62777 360.2568530000001 178.77761 355.7871130000001L225.03472 290.7211700000001C248.8832300000001 297.3807700000001 274.02165 300.9205 300.03003 300.9205C399.89379 300.9205 487.51831 248.42377 534.46539 169.97867C541.84489 157.6494500000001 541.84489 142.35041 534.46538 130.02124zM499.99753 149.9999799999999C463.18983 211.46615 396.9539700000001 254.39346 319.85878 260.75308C311.69925 252.47359 306.6596100000001 241.1943 306.6596100000001 228.74507C306.6596100000001 203.36666 327.53831 182.81795 353.3366900000001 182.81795C379.1050800000001 182.81795 400.01378 203.39666 400.01378 228.74507V228.77508C425.54218 181.79801 413.9629000000001 121.92174 369.23569 87.93387L391.49431 56.64582C437.1814500000001 75.7246299999999 475.24908 108.69257 499.99753 149.9999799999999z" />
    <glyph glyph-name="eye"
      unicode="&#xEA3D;"
      horiz-adv-x="600" d="M300.56745 299.78721C167.8014 299.78721 60 186.31224 60 150.00014C60 110.28367 167.8014 0.21279 300.56745 0.21279C432.1986100000001 0.21279 540 108.01418 540 150.00014C540 185.17735 432.1986100000001 299.78721 300.5674500000001 299.78721zM399.2909 240.78024C399.2909 236.24124 400.4258 232.8369400000001 400.4258 229.4328C400.4258 203.33354 380.0004100000001 182.90786 353.90085 182.90786C327.8016 182.90786 307.37622 205.60303 307.37622 224.89382C307.37622 244.1843100000001 310.78022 252.1273700000001 319.8585500000001 261.2056200000001C352.7662600000001 258.9358200000001 382.2699 248.7232900000001 399.2912 240.7799300000001zM300.56745 36.52488C193.90065 36.52488 107.65953 120.49651 107.65953 150.0001399999999C107.65953 168.1560499999999 143.97163 210.14201 198.43962 237.37586C189.36172 220.35485 182.55322 202.19865 182.55322 180.63837C182.55322 115.95754 235.88632 63.7590299999999 300.56745 63.7590299999999C364.1134 63.7590299999999 417.44679 115.95754 417.44679 180.63837C417.44679 201.06406 410.63829 220.35485 401.56038 237.37586C456.0283800000001 210.14201 492.34048 167.0214399999999 492.34048 150.0001399999999C492.34048 118.22702 406.09935 36.52488 300.56745 36.52488z" />
    <glyph glyph-name="filter-filled"
      unicode="&#xEA3E;"
      horiz-adv-x="600" d="M517.47209 380.741605H82.524151C62.548521 380.741605 52.461821 357.436695 66.602991 343.82294L219.22208 177.09564V-8.6183699999999C219.22208 -15.67247 222.81508 -22.29806 228.8143800000001 -26.3525199999999L348.6352 -76.819C352.6567 -79.5219999999999 357.1067000000001 -80.7415999999999 361.42487 -80.7415999999999C373.0938700000001 -80.7415999999999 384.03755 -71.9075 384.03755 -59.08485V177.09564L533.36029 343.82294C547.5344299999999 357.4037350000001 537.51364 380.7416050000001 517.47209 380.7416050000001z" />
    <glyph glyph-name="filter"
      unicode="&#xEA3F;"
      horiz-adv-x="600" d="M463.18188 334.59328L349.68997 207.88317L337.92216 194.73089V-22.19917L265.4033700000001 8.32465V195.02758L253.3059100000001 208.24577L137.6384400000001 334.59328H463.18188M517.4720900000001 380.741605H82.524151C62.548521 380.741605 52.461821 357.436695 66.602991 343.82294L219.22208 177.09564V-8.6183699999999C219.22208 -15.67247 222.81508 -22.29806 228.8143800000001 -26.3525199999999L348.6352 -76.819C352.6567 -79.5219999999999 357.1067000000001 -80.7415999999999 361.42487 -80.7415999999999C373.0938700000001 -80.7415999999999 384.03755 -71.9075 384.03755 -59.08485V177.09564L533.36029 343.82294C547.5344299999999 357.4037350000001 537.51364 380.7416050000001 517.47209 380.7416050000001z" />
    <glyph glyph-name="fullscreen"
      unicode="&#xEA40;"
      horiz-adv-x="600" d="M334.2856740000001 230.98288L380.982816 184.285738L471.222816 274.525738L539.999958 205.748595V390.000022H355.8171020000001L424.5256730000001 321.257165zM59.999962 94.217167V-89.9999740000001H244.217103L175.474247 -21.257117L265.714246 68.982882L219.017104 115.71431L128.777104 25.440025zM59.999962 205.817166L128.742819 274.525737L219.017104 184.285738L265.714246 230.98288L175.474246 321.2228800000001L244.251389 390.000022H59.999962zM424.5599590000001 -21.222832L355.782817 -89.9999740000001H539.999958V94.217167L471.257101 25.4743109999999L381.017102 115.71431L334.2856740000001 69.017168z" />
    <glyph glyph-name="help"
      unicode="&#xEA41;"
      horiz-adv-x="600" d="M315.56128 47.49142C313.20114 52.7318 310.76087 59.1723499999999 308.36068 66.73303C306.00054 74.25371 304.7603000000001 82.73436 304.7603000000001 92.05514C304.7603000000001 103.09606 307.6005 113.1769 313.2411 122.29766C318.9215000000001 131.41846 326.04214 140.17916 334.6428500000001 148.65986C343.2035700000001 157.10056 352.4843600000001 165.58128 362.4051700000001 174.02198C372.286 182.46269 381.52677 192.14349 390.12749 203.10441C398.72814 214.06535 405.8888000000001 226.10633 411.5292800000001 239.10742C417.1298000000001 252.10856 420.0100400000001 266.94974 420.0100400000001 283.59112C420.0100400000001 301.19259 416.6096900000001 316.55387 409.8891300000001 329.79498C403.0885700000001 343.03607 393.8477900000001 354.037 382.1268300000001 362.95773C370.4058400000001 371.91849 356.6446900000001 378.59904 340.9634000000001 383.19943C325.24207 387.6798 308.6806900000001 390 290.99922 390C252.71602 390 215.67294 379.55917 179.98995 358.8374V283.59112C209.39242 312.47353 240.27498 326.91474 272.7577 326.91474C282.79847 326.91474 292.19933 325.71424 301.00006 323.35444C309.8007600000001 320.87424 317.64145 317.31394 324.48201 312.4335700000001C331.3625100000001 307.51307 336.76303 301.3926400000001 340.68336 294.23205C344.6036600000001 286.91135 346.52386 278.4307300000001 346.52386 268.66991C346.52386 257.82902 343.88356 247.90819 338.52316 238.7074100000001C333.16266 229.5866100000001 326.5221200000001 220.94592 318.64145 212.70524C310.6407500000001 204.46454 302.1200800000001 195.98384 292.83929 187.38312C283.5984900000001 178.6624200000001 274.95781 169.70165 267.03715 160.3808800000001C259.11645 151.10018 252.43592 141.05926 247.15549 130.2583600000001C241.79509 119.53751 239.15479 107.57647 239.15479 94.37537C239.15479 85.81467 239.87479 77.29394 241.43499 68.65322C242.95509 59.9325200000001 244.71529 52.85191 246.67549 47.4514500000001H315.56124zM316.5602800000001 -77.359C325.7210800000001 -69.1183000000001 330.2415000000001 -58.9174600000001 330.2415000000001 -46.75643C330.2415000000001 -34.39544 325.7211000000001 -24.23456 316.5602800000001 -16.1939C307.1993700000001 -7.4331 296.27859 -3.19275 283.9175500000001 -3.19275C271.2765500000001 -3.19275 260.27559 -7.4331500000001 250.9148000000001 -16.1939C241.7540000000001 -24.1946 237.2336000000001 -34.39541 237.2336000000001 -46.75643C237.2336000000001 -58.9174 241.7540000000001 -69.1183000000001 250.9148100000001 -77.359C260.5156100000001 -85.7997 271.4765300000001 -90 283.9175600000001 -90C296.0386100000001 -90 306.9594800000001 -85.7997 316.5602800000001 -77.359z" />
    <glyph glyph-name="hierarchy"
      unicode="&#xEA42;"
      horiz-adv-x="600" d="M274.9606299212599 324.992125984252A24.9448818897638 24.9448818897638 0 0 1 250.0157480314961 300.0472440944882V249.9685039370078C250.0157480314961 236.1732283464567 261.1653543307087 225.023622047244 274.9606299212599 225.023622047244H287.5275590551182V174.9448818897637H122.740157480315L122.4566929133858 174.755905511811L121.5118110236221 174.4724409448819H121.3228346456693L120.3779527559055 174.0944881889763H120A11.7165354330709 11.7165354330709 0 0 1 119.5275590551181 173.8110236220472L118.9606299212599 173.527559055118L118.3937007874016 173.1496062992125C118.2047244094488 173.1496062992125 118.1102362204725 172.9606299212598 117.9212598425197 172.8661417322833A12.2834645669291 12.2834645669291 0 0 1 117.4488188976378 172.4881889763778L116.976377952756 172.2047244094487L116.5039370078741 171.7322834645668L116.0314960629922 171.3543307086613L115.6535433070867 170.8818897637794L115.2755905511812 170.5039370078739L114.8976377952757 169.9370078740156A12.2834645669291 12.2834645669291 0 0 1 114.5196850393702 169.4645669291337C114.5196850393702 169.2755905511809 114.3307086614174 169.1811023622046 114.236220472441 168.9921259842518L113.9527559055119 168.4251968503936A11.4330708661417 11.4330708661417 0 0 1 113.5748031496064 167.6692913385825L113.3858267716536 167.4803149606299L113.2913385826772 167.1968503937008L113.007874015748 166.5354330708661V166.251968503937L112.7244094488189 165.3070866141732V165.0236220472441A12.4724409448819 12.4724409448819 0 0 1 112.5354330708661 164.0787401574803V163.4173228346456L112.4409448818898 162.8503937007874V137.5275590551181A12.4724409448819 12.4724409448819 0 1 1 137.3858267716536 137.5275590551181V150H287.4330708661418V137.5275590551181A12.4724409448819 12.4724409448819 0 1 1 312.3779527559056 137.5275590551181V150H462.4251968503938V137.5275590551181A12.4724409448819 12.4724409448819 0 1 1 487.3700787401576 137.5275590551181V163.7007874015748L487.2755905511812 164.2677165354331A12.2834645669291 12.2834645669291 0 0 1 486.8976377952757 166.1574803149607L486.6141732283465 166.9133858267716L486.4251968503938 167.2913385826772A12.4724409448819 12.4724409448819 0 0 1 479.4330708661418 174.0944881889764L478.488188976378 174.3779527559055A12.2834645669291 12.2834645669291 0 0 1 474.8976377952757 174.9448818897638H312.3779527559056V225.0236220472442H324.9448818897639A24.9448818897638 24.9448818897638 0 0 1 349.8897637795277 249.8740157480315V299.9527559055118A24.9448818897638 24.9448818897638 0 0 1 324.9448818897639 324.8976377952756H274.8661417322835zM274.9606299212599 300.0472440944882H325.0393700787402V249.9685039370078H274.9606299212599zM99.9685039370079 100.015748031496A24.9448818897638 24.9448818897638 0 0 1 75.0236220472441 74.9763779527558V24.9921259842519C75.0236220472441 11.1968503937007 86.1732283464567 0.0472440944881 99.9685039370079 0.0472440944881H150.0472440944882A24.9448818897638 24.9448818897638 0 0 1 174.992125984252 24.9921259842519V75.0708661417322A24.9448818897638 24.9448818897638 0 0 1 149.9527559055118 100.015748031496zM274.9606299212599 100.015748031496A24.9448818897638 24.9448818897638 0 0 1 250.0157480314961 74.9763779527558V24.9921259842519C250.0157480314961 11.1968503937007 261.1653543307087 0.0472440944881 274.9606299212599 0.0472440944881H325.0393700787402A24.9448818897638 24.9448818897638 0 0 1 349.984251968504 24.9921259842519V75.0708661417322A24.9448818897638 24.9448818897638 0 0 1 325.0393700787402 100.015748031496zM450.0472440944883 100.015748031496A24.9448818897638 24.9448818897638 0 0 1 425.0078740157482 74.9763779527558V24.9921259842519C425.0078740157482 11.1968503937007 436.1574803149607 0.0472440944881 449.952755905512 0.0472440944881H500.0314960629923A24.9448818897638 24.9448818897638 0 0 1 524.976377952756 24.9921259842519V75.0708661417322A24.9448818897638 24.9448818897638 0 0 1 500.0314960629923 100.015748031496H449.952755905512zM99.9685039370079 74.9763779527558H150.0472440944882V24.9921259842519H99.9685039370079V75.0708661417322zM274.9606299212599 74.9763779527558H325.0393700787402V24.9921259842519H274.9606299212599V75.0708661417322zM450.0472440944883 74.9763779527558H500.0314960629922V24.9921259842519H449.9527559055118V75.0708661417322z" />
    <glyph glyph-name="home"
      unicode="&#xEA43;"
      horiz-adv-x="600" d="M252 -59.9999999999999V88.23H348V-59.9999999999999H468V137.63999H540L300.00001 359.999999L60.000001 137.63999H132V-59.9999999999999z" />
    <glyph glyph-name="i"
      unicode="&#xEA44;"
      horiz-adv-x="600" d="M323.91459 312.7543C330.12039 305.1086 340.37172 301.33715 354.66885 301.33715C369.89171 301.33715 381.75457 306.72005 390.18887 317.45144C398.5888700000001 328.14858 402.8402500000001 340.11429 402.8402500000001 353.348576C402.8402500000001 364.182856 399.30885 372.960001 392.28021 379.782859C385.2859100000001 386.571429 375.6516400000001 389.999996 363.4802200000001 389.999996C349.18308 389.999996 337.4230800000001 385.268566 328.2688000000001 375.73714C319.1145 366.20571 314.55452 354.754287 314.55452 341.34857C314.58879 329.82857 317.7088200000001 320.29715 323.91462 312.7543zM209.09174 144.13717C241.01174 164.91431 261.34317 175.30289 270.29174 175.30289C275.64034 175.30289 278.38324 172.28579 278.38324 166.21709C278.38324 153.90858 268.54334 112.9371 248.8289700000001 43.43997C239.98327 12.30857 234.1203700000001 -9.66857 231.4460900000001 -22.31999C228.73749 -34.90284 227.40039 -46.28571 227.40039 -56.26284C227.40039 -66.20564 229.5945900000001 -74.29714 234.1203900000001 -80.6056999999999C238.5431900000001 -86.9142 245.3660600000001 -90 254.4861000000001 -90C261.7204000000001 -90 270.2918100000001 -88.2514000000001 279.9946700000001 -84.8572C289.69747 -81.3942000000001 305.9489500000001 -72.6856500000001 328.7146700000001 -58.7313400000001C351.4460500000001 -44.7770600000001 370.9889100000001 -32.3656400000001 387.4460400000001 -21.5656400000001L388.8517400000001 -17.3142400000002L381.1031400000001 -4.3885200000002L376.8859400000001 -4.0115200000001C346.3374400000002 -24.1028000000002 327.6174500000002 -34.2513700000001 320.5545800000001 -34.2513700000001C317.9830800000002 -34.2513700000001 315.6517800000002 -33.0850700000001 313.6973800000001 -30.7884700000001C311.7087800000001 -28.4913700000001 310.7488800000001 -25.8169700000001 310.7488800000001 -22.7998700000002C310.7488800000001 -11.7941900000002 320.8974800000001 28.5944099999998 341.3660200000001 98.2629699999999C353.0231200000001 138.8229699999999 360.7374500000001 166.2172499999999 364.4060100000001 180.7543899999999C368.0403100000001 195.2915399999999 369.8575100000001 207.2572399999999 369.8575100000001 216.8229599999999C369.8575100000001 223.9886599999999 367.7318100000001 229.8515299999999 363.5146100000001 234.5486699999999C359.2974100000001 239.2458699999999 354.2232100000001 241.4743699999999 348.3946200000001 241.4743699999999C335.4688900000001 241.4743699999999 317.50319 235.3372699999999 294.3603400000001 223.0629499999998C271.2517400000001 210.6515299999998 239.0574600000001 189.6686499999999 197.8117400000001 160.0115099999998L197.1597400000001 155.7943099999998L204.1540400000001 144.4457499999998z" />
    <glyph glyph-name="list"
      unicode="&#xEA45;"
      horiz-adv-x="600" d="M60.000002 123.54166H113.33334V176.45833H60.000002zM60.000002 17.70833H113.33334V70.625H60.000002zM60.000002 229.3749900000001H113.33334V282.2916700000001H60.000002zM166.66668 123.54166H540V176.45833H166.66668zM166.66668 17.70833H540V70.625H166.66668zM166.66668 282.2916700000001V229.3749900000001H540V282.2916700000001z" />
    <glyph glyph-name="lock"
      unicode="&#xEA46;"
      horiz-adv-x="600" d="M454.2747000000001 207.13306H428.5622500000001V259.38076C428.56225 331.4784600000001 370.96637 390 300.00001 390C229.03365 390 171.43776 331.47846 171.43776 259.38076V207.13306H145.72531C117.44161 207.13306 94.30041 183.61473 94.30041 154.88536V-37.7523C94.30041 -66.48169 117.44161 -90 145.72531 -90H454.2747000000001C482.5583900000001 -90 505.6995900000001 -66.48169 505.6995900000001 -37.7523V154.88536C505.6995900000001 183.61473 482.5583900000001 207.13306 454.2747000000001 207.13306zM300.00001 6.33597C271.7163 6.33597 248.57511 29.85429 248.57511 58.58367C248.57511 87.31304 271.7163 110.83136 300.00001 110.83136C328.28369 110.83136 351.4249 87.3130400000001 351.4249 58.58367C351.4249 29.82001 328.28369 6.33597 300.00001 6.33597zM379.70859 207.1330600000001H220.29141V259.38076C220.29141 304.0518500000001 256.04885 340.3578300000001 300.0000100000001 340.3578300000001C343.95115 340.3578300000001 379.70859 304.0518500000001 379.70859 259.38076z" />
    <glyph glyph-name="maximize"
      unicode="&#xEA47;"
      horiz-adv-x="600" d="M424.52567 321.257165L334.28567 230.98288L380.982812 184.285738L471.222812 274.525738L539.999954 205.748595V390.000022H355.817098zM59.999958 94.217167V-89.9999740000001H244.217099L175.474243 -21.257117L265.7142420000001 68.982882L219.0171 115.71431L128.7771 25.440025z" />
    <glyph glyph-name="menu"
      unicode="&#xEA48;"
      horiz-adv-x="600" d="M60 355.714285V287.1428600000001H540V355.714285zM60 115.71428H540V184.28571H60zM60 -55.71428H540V12.85714H60z" />
    <glyph glyph-name="minimize"
      unicode="&#xEA49;"
      horiz-adv-x="600" d="M403.062812 299.760019L334.28567 368.53716V184.285733H518.468526L449.7599550000001 253.02859L539.999954 343.302875L493.302812 390.000017zM106.6971 -89.9999779999999L196.9371 0.274307L265.714242 -68.502835V115.714306H81.497101L150.239957 46.971449L59.999958 -43.26855z" />
    <glyph glyph-name="more"
      unicode="&#xEA4A;"
      horiz-adv-x="600" d="M480 210C446.85 210 420 183.12 420 150S446.8500000000001 90 480 90C513.12 90 540 116.88 540 150S513.12 210 480 210zM120 210C86.85 210 60 183.12 60 150S86.85 90 120 90C153.12 90 180 116.88 180 150S153.12 210 120 210zM300 210C266.85 210 240 183.12 240 150S266.85 90 300 90C333.12 90 360 116.88 360 150S333.12 210 300 210z" />
    <glyph glyph-name="pause"
      unicode="&#xEA4B;"
      horiz-adv-x="600" d="M115.38462 -90H226.15384V390H115.38462zM373.84615 390V-90H484.61539V390z" />
    <glyph glyph-name="pencil"
      unicode="&#xEA4C;"
      horiz-adv-x="600" d="M490.70384 389.96074C482.4893400000001 389.56874 474.4140200000001 386.24224 468.14159 379.96984L435.0591000000001 346.8211800000001L490.7700100000001 291.37493L529.4103600000001 330.01527C539.7766100000001 340.38153 539.7766100000001 357.0323 529.4103600000001 367.3984900000001L516.5743600000001 379.96983C509.4835899999999 387.07859 500.01362 390.40504 490.70384 389.96074zM414.87878 326.70702L218.83196 130.66019L274.54287 75.14779L470.65585 271.26077zM197.85766 109.61974L168.87741 31.21424C167.45461 24.9131399999999 173.19511 19.2356399999999 179.52997 20.76017L250.85581 57.34941zM62.814949 -22.24706V-90H537.08549V-22.24706z" />
    <glyph glyph-name="picture"
      unicode="&#xEA4D;"
      horiz-adv-x="600" d="M486.65999 389.999999H113.33999C83.999998 389.999999 59.999999 366 59.999999 336.66V-36.65999C59.999999 -65.99999 83.999998 -90 113.33999 -90H486.6599900000001C515.99999 -90 540 -65.99999 540 -36.65999V336.66C540 366 515.99999 389.999999 486.65999 389.999999zM209.99999 300C243.14999 300 270 273.15 270 240C270 206.85001 243.14999 180 209.99999 180S150 206.85001 150 240C150 273.15 176.84999 300 209.99999 300zM113.33999 -9.99L206.67 110.01001L273.32999 59.73L366.66 210L486.65999 -9.99z" />
    <glyph glyph-name="play"
      unicode="&#xEA4E;"
      horiz-adv-x="600" d="M115.38461 390V-90L484.61539 149.9999900000001z" />
    <glyph glyph-name="plus"
      unicode="&#xEA4F;"
      horiz-adv-x="600" d="M265.71428 -90H334.28571V390.000005H265.71428zM59.999998 115.71429H540V184.28572H59.999998z" />
    <glyph glyph-name="reload"
      unicode="&#xEA50;"
      horiz-adv-x="600" d="M463.2343 77.14285C435.25715 14.29714 373.23429 -30 300 -30C200.60571 -30 120 50.57142 120 150C120 249.36 200.60571 330 300 330C349.74857 330 394.18286 309.29144 426.6171500000001 276.58286V276.54858L329.9314400000001 179.93142L540 180V390L469.44 319.47429C469.37144 319.50857 468.994 319.1312900000001 468.8919999999999 319.1312900000001C425.55429 362.50286 366.24 390 300 390C167.48571 390 60 282.51429 60 150C60 17.41715 167.48571 -90 300 -90C407.0400100000001 -90 496.69715 -19.57715 527.65714 77.14285z" />
    <glyph glyph-name="remove"
      unicode="&#xEA51;"
      horiz-adv-x="600" d="M479 -89L538.8 -29.2L120.8 388.8L61 329zM120 -89L538 329L478.2 388.8L60.2 -29.2z" />
    <glyph glyph-name="report"
      unicode="&#xEA52;"
      horiz-adv-x="600" d="M162.5196850393701 374.9763779527559A49.8897637795276 49.8897637795276 0 0 1 112.4409448818898 324.992125984252V-24.992125984252C112.4409448818898 -52.6771653543308 134.8346456692913 -75.0708661417324 162.5196850393701 -75.0708661417324H437.48031496063C465.1653543307087 -75.0708661417324 487.5590551181103 -52.6771653543308 487.5590551181103 -24.992125984252V225.0236220472441L337.4173228346457 374.9763779527559zM176.0314960629921 336.8976377952756H337.5118110236221V275.0078740157481C337.5118110236221 247.3228346456693 359.8110236220473 224.9291338582677 387.4960629921261 224.9291338582677H451.0866141732284V-12.992125984252A24.9448818897638 24.9448818897638 0 0 0 426.0472440944883 -38.0314960629922H176.0314960629921A24.9448818897638 24.9448818897638 0 0 0 151.1811023622048 -12.992125984252V312.0472440944882C151.1811023622048 325.8425196850393 162.3307086614173 336.9921259842519 176.1259842519685 336.9921259842519zM361.8897637795277 199.9842519685039A12.4724409448819 12.4724409448819 0 0 1 349.984251968504 187.5118110236221V12.51968503937C349.984251968504 5.6220472440945 355.6535433070867 -0.0472440944883 362.4566929133859 -0.0472440944883H387.4960629921261A12.4724409448819 12.4724409448819 0 0 1 399.968503937008 12.51968503937V187.5118110236221A12.4724409448819 12.4724409448819 0 0 1 387.4960629921261 199.9842519685039H361.8897637795277zM286.8661417322836 150A12.4724409448819 12.4724409448819 0 0 1 274.9606299212599 137.5275590551181V12.51968503937C274.9606299212599 5.6220472440945 280.6299212598426 0.0472440944881 287.5275590551182 0.0472440944881H312.472440944882A12.4724409448819 12.4724409448819 0 0 1 325.0393700787403 12.51968503937V137.5275590551181A12.4724409448819 12.4724409448819 0 0 1 312.472440944882 150H286.8661417322836zM212.0314960629922 99.9212598425197A12.4724409448819 12.4724409448819 0 0 1 200.0314960629922 87.6377952755905V12.3307086614172C200.0314960629922 5.527559055118 205.7007874015749 0.0472440944881 212.6929133858268 0.0472440944881H237.2598425196851A12.4724409448819 12.4724409448819 0 0 1 250.0157480314961 12.3307086614172V87.6377952755905C250.0157480314961 94.535433070866 244.3464566929134 99.9212598425196 237.2598425196851 99.9212598425196H212.0314960629922z" />
    <glyph glyph-name="search"
      unicode="&#xEA53;"
      horiz-adv-x="600" d="M416.47744 75.88861L405.87721 65.24807L376.79661 94.36958C436.51784 165.01325 433.7978 270.49873 367.07641 337.2222C296.75495 407.505863 182.83259 407.625861 112.63112 337.38222C42.389673 267.17856 42.469673 153.21264 112.79112 82.9289899999999C179.5125 16.16551 284.99469 13.4853899999999 355.63614 73.2084899999999L384.75677 44.08697L374.11655 33.48641L497.59912 -90L540 -47.5977999999999zM155.19201 125.2912C108.31103 172.17362 108.19104 248.09758 155.03201 294.98C201.83299 341.78244 277.83456 341.70244 324.71554 294.82C371.5965 247.93757 371.63651 171.97362 324.83553 125.17118C277.99456 78.32874 202.07299 78.40875 155.19201 125.2912z" />
    <glyph glyph-name="signout"
      unicode="&#xEA54;"
      horiz-adv-x="600" d="M473.93448 307.39311L431.45094 264.94958C461.13341 233.50696 479.9749899999999 192.10352 479.9749899999999 145.77965C479.9749899999999 48.09151 399.3282699999999 -31.11509 299.9599999999999 -31.11509C200.5917199999999 -31.11509 119.9449899999999 48.09151 119.9449899999999 145.77965C119.9449899999999 192.06351 138.7865699999999 233.46695 168.4690399999999 264.90957L125.9854899999999 307.39311C85.2621049999999 265.2296 59.9799949999999 208.54488 59.9799949999999 145.81966C59.979995 15.56881 167.50895 -90 299.9999900000001 -90C432.57103 -90 540.02 15.6088 540.02 145.81966C539.93998 208.54488 514.6178799999999 265.2296 473.93448 307.39311zM339.92333 390H259.91665V149.98H339.92333z" />
    <glyph glyph-name="slash"
      unicode="&#xEA55;"
      horiz-adv-x="600" d="M84.36 -118.4L567.46 364.7000000000001L513.85 418.31L30.75 -64.79z" />
    <glyph glyph-name="speaker-off"
      unicode="&#xEA56;"
      horiz-adv-x="600" d="M488.5714400000001 150C488.5714400000001 136.52572 486.6857400000001 123.6343 483.97714 110.94857L525.66855 69.25715C534.78855 94.49143 539.9999799999999 121.5428700000001 539.9999799999999 149.96573C539.9999799999999 258.65143 467.62283 349.98858 368.63998 379.4743V325.30286C438.75426 297.94286 488.5714 229.9543 488.5714400000001 150zM368.64002 267.77144V226.28571L436.56001 158.33144C433.68001 205.33714 407.10858 245.45143 368.64002 267.77144zM529.7143 -31.74857L117.94287 380.05715L69.702872 331.85143L154.66287 246.89143L147.66857 240.00003H60.000015V60.00003H147.66859L300.00002 -90V101.52L368.64002 32.88001V32.22801C368.77702 32.2965900000001 368.91502 32.4340100000001 369.05102 32.50301L406.32024 -4.76562C394.56024 -12.8227199999999 382.11453 -19.98848 368.64024 -25.3027599999999V-79.4741899999999C395.8974 -71.34849 420.8231 -58.1484799999999 443.10881 -41.5541899999999L481.81738 -80.2970499999999L530.29738 -31.8170499999999L529.9543799999999 -31.4400499999999zM300.00002 390L252.1028800000001 342.85715L300.00002 294.92572z" />
    <glyph glyph-name="speaker"
      unicode="&#xEA57;"
      horiz-adv-x="600" d="M437.142834 149.999996C437.142834 200.60571 409.371406 244.114281 368.605692 267.771424V32.1942829999999C409.371406 55.885711 437.142834 99.394283 437.142834 149.999996zM299.999978 -90.000002V389.999994L147.668551 239.999995H59.99998V59.999997H147.66855zM368.605692 379.508566V325.337137C438.754262 297.908567 488.571405 229.954281 488.571405 149.999996C488.571405 70.182854 438.754263 2.159997 368.605692 -25.30286V-79.4742879999999C467.622834 -49.9885739999999 539.9999760000001 41.3828540000001 539.9999760000001 149.9999960000001C539.9999760000001 258.6857090000001 467.622834 350.0228510000001 368.605692 379.5085660000001z" />
    <glyph glyph-name="star-filled"
      unicode="&#xEA58;"
      horiz-adv-x="600" d="M300 389.9L228.0000000000001 228.8L60 206.5L183.5 84.6L151.7 -90L300 -4.3L448.4 -90.1L416.6 84.7000000000001L540 206.5L372.0000000000001 228.7z" />
    <glyph glyph-name="star"
      unicode="&#xEA59;"
      horiz-adv-x="600" d="M299.999956 305.999515L340.731384 214.902373L348.548527 197.4166580000001L367.542813 194.913801L466.079955 181.8509440000001L392.4685270000001 109.2338020000001L379.5770980000001 96.5138020000001L382.799955 78.6852310000001L401.3142410000001 -23.2119109999999L317.1428130000001 25.473803L299.999956 35.41666L282.822813 25.473803L198.651385 -23.2119109999999L217.165671 78.6852310000001L220.388528 96.5138020000001L207.4971 109.2338020000001L133.885672 181.8509440000001L232.422814 194.913801L251.417099 197.4166580000001L259.234242 214.902373L299.999956 305.9995150000001M299.999956 389.9995140000001L227.965671 228.890944L59.9999579999999 206.60523L183.4628139999999 84.788088L151.679957 -90.0004819999999L299.9999559999999 -4.18334L448.319955 -90.0004819999999L416.537098 84.8223740000001L539.999954 206.60523L372.034241 228.856658z" />
    <glyph glyph-name="stop-sign"
      unicode="&#xEA5A;"
      horiz-adv-x="600" d="M200.6248 389.999999L59.999999 249.3752V50.57306L200.6248 -90H399.4269300000001L540 50.57306V249.3752L399.4269300000001 389.999999zM166.66666 190H433.33333V109.9999999999999H166.66666z" />
    <glyph glyph-name="support"
      unicode="&#xEA5B;"
      horiz-adv-x="600" d="M505.24058 206.79152C504.19497 296.71372 430.7612 375.053817 329.0156 388.123904C216.65305 402.561324 112.65537 332.1035 96.649549 230.80026C95.362597 222.71695 94.920273 214.714 94.839837 206.7513L94.558337 207.1133V81.7611000000001C94.558337 51.43851 122.06583 26.6254500000001 155.68613 26.6254500000001H216.81392V161.5087H145.99415V206.91216H146.03437C146.1148 212.66294 146.5162 218.45399 147.44185 224.28532C159.42614 300.29291 237.44455 353.09607 321.69634 342.27806C398.46803 332.42522 453.2819500000001 272.98649 453.44283 204.98181H453.60383V161.5087H383.1055300000001V26.6254H444.23333C445.5602300000001 26.6254 446.8070300000001 26.9064 448.1343300000001 26.9874C443.8714900000001 13.5150899999999 436.5120300000001 0.6460799999999 425.3320800000001 -10.41323C413.3076000000001 -22.31705 398.5484500000001 -30.27975 382.8241300000001 -35.22628C375.7864000000001 -26.17775 364.7271000000001 -19.9041100000001 351.6167900000001 -19.9041100000001H328.3721400000001C307.0176300000001 -19.9041100000001 289.5238200000001 -35.66865 289.5238200000001 -54.93195C289.5238200000001 -74.19524 307.0176300000001 -90 328.4123600000001 -90H351.6570100000001C368.2258500000001 -90 382.2209000000001 -80.4286000000001 387.7706600000002 -67.1575C411.4174700000002 -60.9241400000001 433.6165100000001 -49.50284 451.4722600000001 -31.84817C473.1484900000001 -10.4132300000001 484.81104 15.92803 487.3848300000001 42.7518699999999C498.5245700000001 52.7655599999999 505.4416600000001 66.5595299999999 505.4416600000001 81.76105V207.1132499999999z" />
    <glyph glyph-name="text"
      unicode="&#xEA5C;"
      horiz-adv-x="600" d="M185.9 -40.7L235.6 -29.5A20.1 20.1 0 0 1 247.2 -23.2A17 17 0 0 1 251.5 -11.6000000000001V325.6H152.4C147.9 325.6 144.6 324.6 142.6 322.6A20.8 20.8 0 0 1 137.9 315L110.2 248H87.5V359H512.5V248H489.8L462.1 315A21.8 21.8 0 0 1 457.6 322.6C455.6 324.6 452.6 325.6 448.3 325.6H347.5V-11.6C347.5 -16.2 349.1 -20.1 352.5 -23.1999999999999C355.7 -26.3999999999999 359.5 -28.4999999999999 363.7 -29.4999999999999L413.5 -40.6999999999999V-58.9H185.9V-40.6999999999999z" />
    <glyph glyph-name="time-period"
      unicode="&#xEA5D;"
      horiz-adv-x="600" d="M336.26116 390C204.26131 390 96.261167 281.99986 96.261167 149.99999H23.738833L121.90848 51.89732L220.01117 149.99999H144.27456C144.27456 255.59988 230.66129 342.0535700000001 336.26116 342.0535700000001C441.86106 342.0535700000001 528.24778 255.59988 528.24778 149.99999C528.24778 44.4000900000001 441.8610600000001 -41.98661 336.2611600000001 -41.98661C291.3126500000001 -41.98661 249.9431000000001 -26.25962 217.1317000000001 -0.13393L181.3727800000001 -32.74554C223.23558 -68.3340499999999 277.2898 -90 336.26116 -90C468.26104 -90 576.2611700000001 18.00014 576.2611700000001 149.99999C576.26117 281.99986 468.26104 390 336.26116 390zM312.28795 270V126.02678L437.0424200000001 49.21875L456.26116 80.42411L348.2477800000001 145.24554V270z" />
    <glyph glyph-name="trash"
      unicode="&#xEA5E;"
      horiz-adv-x="600" d="M368.57143 355.7142810000001V390H231.42857V355.7142810000001H94.28571V287.1428600000001H505.7142900000001V355.7142810000001zM128.57142 -38.57143C128.57142 -66.96 151.61142 -90 179.99999 -90H419.99999C448.38857 -90 471.42857 -66.96 471.42857 -38.57143V252.85714H128.57142zM342.8571500000001 184.28571H394.2857100000001V-21.4285800000001H342.8571500000001zM205.71428 184.28571H257.14285V-21.4285800000001H205.71428z" />
    <glyph glyph-name="tree-top-bottom"
      unicode="&#xEA5F;"
      horiz-adv-x="600" d="M266 -150H334.6V450H266z" />
    <glyph glyph-name="tree-top-right-bottom"
      unicode="&#xEA60;"
      horiz-adv-x="600" d="M266 -150H334.6V450H266zM334.0000000000001 116H600V184.6H334z" />
    <glyph glyph-name="tree-top-right"
      unicode="&#xEA61;"
      horiz-adv-x="600" d="M266 116H600V184.6L334 184.5963000000001V450.5963H265.4z" />
    <glyph glyph-name="triangle-flipped-warning"
      unicode="&#xEA62;"
      horiz-adv-x="600" d="M59.988871 346.37051L130.32043 231.33873L229.69418 68.66127L300.02596 -46.37051L370.30582 68.66127L469.7312699999999 231.33873L540.01113 346.37051zM278.16676 302.70382H321.83324V171.80738H278.16676zM278.16676 128.19262H321.83324V84.52593H278.16676z" />
    <glyph glyph-name="triangle-warning"
      unicode="&#xEA63;"
      horiz-adv-x="600" d="M60 -57.27272H540L300 357.2727250000001zM321.81818 8.18182H278.18182V51.81819H321.81818zM321.81818 95.45455H278.18182V182.72728H321.81818z" />
    <glyph glyph-name="uncheck"
      unicode="&#xEA64;"
      horiz-adv-x="600" d="M204.0186000000006 307.0859999999996C191.3886000000006 319.7159999999996 170.9286000000006 319.7159999999996 158.2986000000006 307.0859999999996C145.6686000000006 294.4559999999996 145.6686000000006 273.9959999999997 158.2986000000006 261.3659999999997L297.1986000000006 122.4659999999996L230.9586000000006 52.6259999999996L115.6386000000006 174.1859999999996C102.9186000000006 187.5959999999996 82.3086000000006 187.5959999999996 69.6186000000006 174.1859999999996C56.8686000000006 160.7759999999996 56.8386000000006 139.0259999999996 69.5886000000006 125.6759999999996L207.7086000000006 -20.0640000000004C214.1286000000006 -26.7840000000003 222.5286000000006 -30.0840000000003 230.9286000000006 -30.0540000000003C239.3286000000006 -30.0840000000003 247.7286000000006 -26.7840000000003 254.1186000000006 -20.0640000000004L344.4486000000006 75.1859999999996L426.8286000000006 -7.1940000000004C439.4586000000006 -19.8240000000004 459.9186000000006 -19.8240000000004 472.5486000000006 -7.1940000000004C485.1786000000006 5.4359999999996 485.1786000000006 25.8959999999996 472.5486000000006 38.5259999999996zM530.4786 319.865999999999C517.7886 333.245999999999 497.1486 333.335999999999 484.4286 319.865999999999L379.7886000000001 209.525999999999L427.0686000000001 162.245999999999L530.5086 271.325999999999C543.2286 284.735999999999 543.2286 306.455999999999 530.4786 319.865999999999z" />
    <glyph glyph-name="user-filled"
      unicode="&#xEA65;"
      horiz-adv-x="600" d="M300 70.04002C208.96001 70.04002 125.48001 37.96002 60 -15.39997V-90.0000199999999H540V-15.39997C474.5600000000001 37.96002 391.04 70.04002 300.0000000000001 70.04002zM300 150.04002C366.28 150.04002 420 203.76002 420 270.00002C420 336.28002 366.2800000000001 390.00002 300 390.00002C233.76 390.00002 180 336.28002 180 270.00002C180 203.76002 233.76 150.04002 300 150.04002z" />
    <glyph glyph-name="user"
      unicode="&#xEA66;"
      horiz-adv-x="600" d="M300 350C344.12 350 380 314.12001 380 270C380 225.92 344.12 190.04001 300 190.04001C255.88 190.04001 219.99999 225.92 219.99999 270C219.99999 314.12001 255.88 350 300 350M300 30.04001C371.8 30.04001 442.12 7.03999 499.99999 -35.04V-50H99.999996V-35.04C158.35999 7.6 227.12 30.04001 300 30.04001M300 390C233.75999 390 179.99999 336.28 179.99999 270C179.99999 203.76001 233.75999 150.03999 300 150.03999C366.28 150.03999 420 203.76001 420 270C420 336.28 366.28 390 300 390zM300 70.04C208.95999 70.04 125.47999 37.96001 59.999995 -15.4V-90H540V-15.4C474.55999 37.96001 391.0399900000001 70.04 300.0000000000001 70.04z" />
    <glyph glyph-name="users-filled"
      unicode="&#xEA67;"
      horiz-adv-x="600" d="M383.32005 329.6783000000001C336.3939 326.17065 300.09217 287.10407 300.03224 240.04705C297.72144 117.7846 482.3033600000001 117.7846 479.99256 240.04705C479.92459 292.33434 435.46331 333.55723 383.32005 329.6783000000001zM191.43436 298.91221A79.932399 79.932399 0 0 1 187.18426 298.72821C145.46099 295.60371 113.20699 260.83248 113.22078 218.99238C114.57908 113.79148 271.7145 113.79148 273.07282 218.99238C273.07929 263.81021 236.24193 299.87485 191.4343 298.9184zM210.0201 120.09383C90.02584 120.09383 60 30.07823 60 0.07769C60 -19.93022 69.9953 -29.92628 90.00396 -29.92628H216.49026C212.04556 -20.55878 209.83096 -10.28907 210.02006 0.07769C210.02006 30.37589 221.29977 61.31317 242.68801 87.17167C249.97761 95.99337 258.52491 104.24744 268.12452 111.65696A176.39243 176.39243 0 0 1 231.20679 119.07886A220.490822 220.490822 0 0 1 210.02006 120.09036zM389.98069 120.04114C269.98563 120.04114 240.0238 30.0247499999999 240.0238 0.0249999999999C240.0238 -29.97238 270.02803 -29.9152200000001 270.02803 -29.9152200000001H509.9963S540 -29.9679 540 0.025C540 30.02475 509.97391 120.0411400000001 389.9806900000001 120.0411400000001z" />
    <glyph glyph-name="users"
      unicode="&#xEA68;"
      horiz-adv-x="600" d="M383.32005 329.6783000000001A89.99623 89.99623 0 0 1 300.03224 240.04705A89.99623 89.99623 0 1 1 479.99256 240.04705A89.99623 89.99623 0 0 1 383.32005 329.6783000000001zM389.98065 300.0555100000001A60.00821 60.00821 0 1 0 389.98065 180.03912A60.00821 60.00821 0 0 0 389.98065 300.0555100000001zM191.43436 298.91221A79.932682 79.932682 0 0 1 187.18426 298.72821A79.932682 79.932682 0 0 1 113.22078 218.99238A79.932682 79.932682 0 0 1 273.0728200000001 218.99238A79.932682 79.932682 0 0 1 191.4343 298.9184zM193.20986 272.2702900000001A53.297764 53.297764 0 0 0 193.20986 165.70235A53.297764 53.297764 0 1 0 193.20986 272.2702900000001zM210.0201 120.09383C90.02584 120.09383 60 30.07823 60 0.07769C60 -19.93022 69.9953 -29.92628 90.00396 -29.92628H216.49026A67.1371 67.1371 0 0 0 210.02006 0.07769C210.02006 30.37589 221.29977 61.31317 242.68801 87.17167C249.97761 95.99337 258.52491 104.24744 268.12452 111.65696A176.39239 176.39239 0 0 1 231.20679 119.07886A220.49049 220.49049 0 0 1 210.02006 120.09036zM389.9806900000001 120.04114C269.98563 120.04114 240.0238 30.0247499999999 240.0238 0.0249999999999C240.0238 -29.97238 270.02803 -29.9152200000001 270.02803 -29.9152200000001H509.9963S540 -29.9679 540 0.025C540 30.02475 509.97391 120.0411400000001 389.9806900000001 120.0411400000001zM207.6092700000001 90.03717A164.78288 164.78288 0 0 1 180.01561 0.0249999999999H90.00423C90.00423 7.8262 94.95993 30.96675 112.83997 51.7868C129.18896 70.86509 157.5721 89.46792 207.60927 90.03717zM390.0439100000001 90.03717C441.55176 90.03717 470.63401 71.10243 487.22351 51.72358C505.01236 31.0233899999999 509.9365000000001 8.0424999999999 509.9963 0.1519699999999L509.8123 0.09928A8.219645 8.219645 0 0 0 509.3673 0.04661H270.66768A7.829662 7.829662 0 0 0 270.03568 0.17761C270.05887 8.10341 275.01938 31.04875 292.80821 51.74894C309.36741 71.15783 338.51341 90.06254 390.05156 90.06254z" />
    <glyph glyph-name="widget-add"
      unicode="&#xEA69;"
      horiz-adv-x="600" d="M439.733353 168.872967C384.360021 168.872967 339.466689 124.352967 339.466689 69.432969S384.360021 -30.007028 439.733353 -30.007028C495.106685 -30.007028 540.0000170000001 14.512971 540.0000170000001 69.432969C540.0000170000001 124.352968 495.106685 168.872967 439.733353 168.872967zM439.733353 -10.100363C395.426687 -10.100363 359.5200220000001 25.5129699999999 359.5200220000001 69.4463029999999C359.5200220000001 113.379635 395.426687 148.992967 439.733352 148.992967C484.040018 148.992967 519.946684 113.379635 519.946684 69.4463029999999C519.946684 25.5129699999999 484.040018 -10.100362 439.733353 -10.100362zM60.000029 330.006296V-29.993695H386.053354C379.000021 -26.233695 372.413354 -21.753695 366.3466880000001 -16.660362H73.333362V263.339631H526.666684V142.099634C531.7600170000001 136.126301 536.240017 129.632968 540.0000170000001 122.686301V330.006296zM473.3333519999999 276.672964H433.333353V316.672963H473.3333519999999zM526.6666839999999 276.672964H486.6666849999999V316.672963H526.6666839999999zM473.0666850000001 62.779636V76.112969H446.40002V102.779635H433.066687V76.112969H406.40002V62.779636H433.066686V36.11297H446.4000190000001V62.779636z" />
    <glyph glyph-name="widget-resize"
      unicode="&#xEA6A;"
      horiz-adv-x="600" d="M60.014648 329.98902V-29.98902H447.53621L460.86873 -16.6565H73.347167V263.32642H526.65283V49.12761L539.98535 62.46012V329.98902zM433.32519 316.6565H473.32275V276.6589400000001H433.32519zM486.65527 316.6565H526.65283V276.6589400000001H486.65527zM425.26367 84.73266V18.07006L449.1381800000001 41.99625L497.2489399999999 -6.11451L473.32275 -29.98902H539.98535V36.67358L516.1108399999999 12.7474L468.00008 60.8581599999999L491.92627 84.73266z" />
    <glyph glyph-name="wrench-alt"
      unicode="&#xEA6B;"
      horiz-adv-x="600" d="M529.77576 283.43921L424.84798 178.55943L328.41619 274.99122L433.34397 379.774998C375.31209 401.230938 307.58425 388.990978 260.92835 342.38308C211.96846 293.42318 200.88047 221.32733 226.94442 161.51947L60.000768 -5.18417L144.8646 -90L311.90424 76.89565C371.6641 51.1197 443.51994 62.35167 492.33584 111.21558C538.9917399999999 157.77548 551.23171 225.40733 529.77576 283.43921z" />
    <glyph glyph-name="wrench"
      unicode="&#xEA6C;"
      horiz-adv-x="600" d="M536.19429 313.4742700000001L467.28001 244.55999L394.56 317.27998L463.4742800000001 386.194265C455.0056800000001 388.422835 446.2971500000001 389.999975 437.1428600000001 389.999975C380.3314400000001 389.999975 334.2857300000001 343.954266 334.2857300000001 287.142836C334.2857300000001 277.988536 335.8629300000001 269.245696 338.09143 260.811406L189.12002 111.87428C180.72002 114.17138 172.01145 115.71428 162.85717 115.71428C106.04574 115.71428 60.00003 69.6685700000001 60.00003 12.85714C60.00003 3.6686400000001 61.57723 -5.04 63.80583 -13.47429L132.72003 55.43999L205.44002 -17.27999L136.5257400000001 -86.19428C144.9943400000001 -88.4228800000001 153.70289 -89.99998 162.8571700000001 -89.99998C219.66859 -89.99998 265.7143000000001 -43.9542600000001 265.7143000000001 12.8571499999999C265.7143000000001 22.0114499999999 264.1715000000001 30.72002 261.9086000000001 39.18858L410.9142700000001 188.12568C419.27997 185.82858 427.9885500000001 184.28568 437.1428300000001 184.28568C493.9542600000001 184.28568 539.9999700000001 230.33139 539.9999700000001 287.14282C539.9999700000001 296.33142 538.42277 305.00567 536.19427 313.47427z" />
    <glyph glyph-name="z"
      unicode="&#xEA6D;"
      horiz-adv-x="600" d="M499.98 390H99.98001C77.94001 390 60.02 372.1199900000001 60.02 350.00001V-49.99999C60.02 -72.1199899999999 77.94001 -90 99.98001 -90H499.98C522.10001 -90 539.98 -72.1199899999999 539.98 -49.99999V350.0000100000001C539.98 372.1199900000001 522.10001 390 499.98 390zM420.74 -2.79999H179.34V46.47999L320.94 239.04H187.82001V302.79999H415.82001V248.64L278.06001 60.92H420.74z" />
  </font>
</defs>
</svg>
