<?xml version="1.0" standalone="no"?>
<!DOCTYPE svg PUBLIC "-//W3C//DTD SVG 1.1//EN" "http://www.w3.org/Graphics/SVG/1.1/DTD/svg11.dtd" >
<svg xmlns="http://www.w3.org/2000/svg">
<metadata>
Created by FontForge 20120731 at Wed Jun 15 15:31:19 2016
 By admin
</metadata>
<defs>
<font id="iconfont" horiz-adv-x="1024" >
  <font-face 
    font-family="iconfont"
    font-weight="500"
    font-stretch="normal"
    units-per-em="1024"
    panose-1="2 0 6 3 0 0 0 0 0 0"
    ascent="896"
    descent="-128"
    x-height="792"
    bbox="0 -212 1025 896"
    underline-thickness="50"
    underline-position="-100"
    unicode-range="U+0078-E625"
  />
<missing-glyph horiz-adv-x="374" 
d="M34 0v682h272v-682h-272zM68 34h204v614h-204v-614z" />
    <glyph glyph-name=".notdef" horiz-adv-x="374" 
d="M34 0v682h272v-682h-272zM68 34h204v614h-204v-614z" />
    <glyph glyph-name=".null" horiz-adv-x="0" 
 />
    <glyph glyph-name="nonmarkingreturn" horiz-adv-x="341" 
 />
    <glyph glyph-name="x" unicode="x" horiz-adv-x="1001" 
d="M281 543q-27 -1 -53 -1h-83q-18 0 -36.5 -6t-32.5 -18.5t-23 -32t-9 -45.5v-76h912v41q0 16 -0.5 30t-0.5 18q0 13 -5 29t-17 29.5t-31.5 22.5t-49.5 9h-133v-97h-438v97zM955 310v-52q0 -23 0.5 -52t0.5 -58t-10.5 -47.5t-26 -30t-33 -16t-31.5 -4.5q-14 -1 -29.5 -0.5
t-29.5 0.5h-32l-45 128h-439l-44 -128h-29h-34q-20 0 -45 1q-25 0 -41 9.5t-25.5 23t-13.5 29.5t-4 30v167h911zM163 247q-12 0 -21 -8.5t-9 -21.5t9 -21.5t21 -8.5q13 0 22 8.5t9 21.5t-9 21.5t-22 8.5zM316 123q-8 -26 -14 -48q-5 -19 -10.5 -37t-7.5 -25t-3 -15t1 -14.5
t9.5 -10.5t21.5 -4h37h67h81h80h64h36q23 0 34 12t2 38q-5 13 -9.5 30.5t-9.5 34.5q-5 19 -11 39h-368zM336 498v228q0 11 2.5 23t10 21.5t20.5 15.5t34 6h188q31 0 51.5 -14.5t20.5 -52.5v-227h-327z" />
    <glyph glyph-name="uniE600" unicode="&#xe600;" 
d="M439 23zM981 428l-384 -384v213q-8 0 -34 0.5t-41.5 0.5t-43.5 -1t-46.5 -4t-44.5 -8.5t-43 -14t-36 -21.5t-30 -29t-18 -39t-7 -51q0 -106 60.5 -194.5t155.5 -107.5q-80 11 -149 43t-121.5 84.5t-83 129t-30.5 170.5q0 62 15 114.5t38 90t58.5 67t69 48t77 31.5
t75 19.5t72 9.5t58 3.5t41.5 0.5h8v213z" />
    <glyph glyph-name="uniE601" unicode="&#xe601;" 
d="M914 699q19 0 32 -12.5t13 -32.5q0 -19 -13 -31l-538 -538q-13 -13 -32 -13t-32 13l-269 269q-13 13 -13 31q0 20 13 32.5t32 12.5t32 -13l237 -237l506 506q13 13 32 13zM914 699z" />
    <glyph glyph-name="uniE602" unicode="&#xe602;" 
d="M649 497l-138 399l-141 -395l-370 -4l304 -252l-109 -373l316 226l317 -226l-110 371l306 254h-375z" />
    <glyph glyph-name="uniE603" unicode="&#xe603;" 
d="M808 440v-112q0 -7 -4.5 -11.5t-10.5 -4.5h-208v-208q0 -6 -4.5 -10.5t-11.5 -4.5h-112q-7 0 -11.5 4.5t-4.5 10.5v208h-208q-6 0 -10.5 4.5t-4.5 11.5v112q0 7 4.5 11.5t10.5 4.5h208v208q0 6 4.5 10.5t11.5 4.5h112q7 0 11.5 -4.5t4.5 -10.5v-208h208q6 0 10.5 -4.5
t4.5 -11.5z" />
    <glyph glyph-name="uniE604" unicode="&#xe604;" 
d="M808 440v-112q0 -7 -4.5 -11.5t-10.5 -4.5h-560q-6 0 -10.5 4.5t-4.5 11.5v112q0 7 4.5 11.5t10.5 4.5h560q6 0 10.5 -4.5t4.5 -11.5z" />
    <glyph glyph-name="uniE605" unicode="&#xe605;" 
d="M959 390h-358v358h-179v-358h-358v-179h358v-358h179v358h358v179z" />
    <glyph glyph-name="uniE606" unicode="&#xe606;" 
d="M527 -28l277 272q7 7 7 16t-6.5 16t-16 7t-16.5 -7l-238 -233v738q0 9 -7 15.5t-16.5 6.5t-16 -6.5t-6.5 -15.5v-738l-238 233q-7 7 -16.5 7t-16 -7t-6.5 -16t6 -16l278 -272q6 -6 16 -6t16 6z" />
    <glyph glyph-name="uniE607" unicode="&#xe607;" 
d="M495 797l-278 -272q-6 -7 -6 -16t6.5 -16t16 -7t16.5 7l238 233v-738q0 -9 6.5 -15.5t16 -6.5t16.5 6.5t7 15.5v738l238 -233q7 -7 16.5 -7t16 7t6.5 16t-7 16l-277 272q-7 6 -16.5 6t-15.5 -6z" />
    <glyph glyph-name="uniE608" unicode="&#xe608;" 
d="M203 353h666v-102h-666v102z" />
    <glyph glyph-name="uniE609" unicode="&#xe609;" 
d="M152 336v96h320v-96h-320zM552 336v96h320v-96h-320z" />
    <glyph glyph-name="uniE60A" unicode="&#xe60a;" 
d="M839 690l-7 10h-629l-7 -9q-57 -71 -89 -135t-37.5 -110.5t-1 -77.5t16.5 -56q21 -41 59.5 -66t82.5 -25h5q88 4 150 66q55 -62 137 -62q84 0 139 65q83 -66 158 -66q63 0 107 50q26 30 33 73t-4.5 89t-26 87.5t-37 82t-32.5 57t-17 27.5zM227 270q-27 0 -54.5 16.5
t-43.5 47.5q-10 19 -13 44.5t2.5 64.5t33 93t75.5 116h578q17 -27 34.5 -59t35 -74.5t27 -80.5t6.5 -74t-22 -58q-30 -34 -70 -34q-28 0 -61.5 15.5t-50 28t-29.5 24.5v167h-50v-180q-39 -53 -106 -53q-31 0 -57 12.5t-36.5 23.5t-17.5 23v174h-49v-173q-10 -12 -22.5 -23.5
t-42.5 -25.5t-64 -15h-3zM802 -20q-11 -25 -29 -32h-509q-8 0 -15 2.5t-11.5 6.5t-8.5 9.5t-6.5 10.5t-4.5 9.5t-2 7.5l-1 2v157h-49v-161q6 -33 30.5 -63t67.5 -30l519 1q7 2 15.5 5.5t25.5 20.5t26 42l1 189h-49v-177zM802 -20z" />
    <glyph glyph-name="uniE60B" unicode="&#xe60b;" 
d="M761 364l1 1t1 2q7 13 4.5 28.5t-14.5 26.5l-353 334q-15 14 -34.5 13.5t-33.5 -15t-13 -34.5t15 -34l317 -299l-316 -305q-14 -13 -14.5 -33t13.5 -35q14 -14 35 -14q19 0 33 13l350 338v1q1 1 1.5 1t0.5 1h1q1 2 6 10z" />
    <glyph glyph-name="uniE60C" unicode="&#xe60c;" 
d="M672 -16q-20 0 -34 14l-352 352q-14 14 -14 34t14 34l352 352q14 14 34 14t34 -14t14 -34t-14 -34l-318 -318l318 -318q14 -14 14 -34t-14 -34t-34 -14z" />
    <glyph glyph-name="uniE60D" unicode="&#xe60d;" 
d="M933 665h-140v112q0 24 -16.5 40.5t-39.5 16.5h-445q-23 0 -39.5 -16.5t-16.5 -40.5v-112h-145q-12 0 -20.5 -8.5t-8.5 -20t8.5 -19.5t20.5 -8h842q12 0 20.5 8t8.5 19.5t-8.5 20t-20.5 8.5zM292 665v112h445v-112h-445zM821 553q-12 0 -20 -8.5t-8 -20.5v-505
q0 -12 -8.5 -20t-19.5 -8h-506q-11 0 -19.5 8t-8.5 20v505q0 12 -8 20.5t-20 8.5t-20 -8.5t-8 -20.5v-505q0 -35 24.5 -60t59.5 -25h506q35 0 59.5 25t24.5 60v505q0 12 -8 20.5t-20 8.5zM428 131v393q0 12 -8.5 20.5t-20 8.5t-19.5 -8.5t-8 -20.5v-393q0 -11 8 -19.5
t19.5 -8.5t20 8.5t8.5 19.5zM652 131v393q0 12 -8 20.5t-19.5 8.5t-20 -8.5t-8.5 -20.5v-393q0 -11 8.5 -19.5t20 -8.5t19.5 8.5t8 19.5z" />
    <glyph glyph-name="uniE60E" unicode="&#xe60e;" 
d="M953 401h-423v424q0 8 -5.5 13.5t-13.5 5.5t-14 -5.5t-6 -13.5v-424h-423q-8 0 -13.5 -5.5t-5.5 -13.5t5.5 -13.5t13.5 -5.5h423v-423q0 -8 6 -14t14 -6t13.5 6t5.5 14v423h423q8 0 13.5 5.5t5.5 13.5t-5.5 13.5t-13.5 5.5z" />
    <glyph glyph-name="uniE60F" unicode="&#xe60f;" 
d="M924 99l-369 588q-15 24 -44 24t-44 -24l-369 -588q-15 -25 1 -50q15 -23 43 -23h738q28 0 43 23q16 25 1 50zM558 120q0 -9 -5 -15t-12 -6h-58q-8 0 -12.5 6t-4.5 15v35q0 8 4.5 14.5t12.5 6.5h58q7 0 12 -6.5t5 -14.5v-35zM553 235q-5 -5 -12 -4h-58q-7 0 -12 4t-5 10
v99v155q0 6 5 10t11 4h59q7 0 12 -4t5 -10v-154v-100q0 -6 -5 -10zM553 235z" />
    <glyph glyph-name="uniE610" unicode="&#xe610;" 
d="M505 -79q-44 0 -73 15q-16 8 -24 20q-20 22 -20 58v99q0 18 -9 42q-20 50 -70 87h-1q-60 47 -93 116q-35 70 -35 150q0 140 99 239.5t239.5 99.5t239.5 -99.5t99 -239.5q0 -80 -35 -152q-35 -68 -96 -116l-1 -1q-25 -16 -44 -34t-28 -31t-15 -26t-7 -17.5t-1 -7.5v-21
v-28q0 -47 -39 -67q-24 -12 -62 -12h-5q-37 0 -55 5q-8 2 -11.5 8.5t-1.5 14t8.5 11.5t13.5 2q14 -4 46 -4h5q38 0 51 12t13 30v28v22q0 20 16 49q28 53 95 97q54 42 84 103q32 63 32 135q0 125 -88.5 213t-213 88t-213 -88t-88.5 -213q0 -70 30 -131.5t84 -104.5
q27 -20 46 -43t28 -41t14 -36.5t5.5 -26t0.5 -12.5v-99q0 -22 11 -34l2 -2l1 -1q18 -20 75 -18h2h1q12 0 48 5q37 6 62 -2q7 -2 10.5 -9t1 -14.5t-9 -11t-14.5 -0.5q-16 5 -44 0h-1q-41 -6 -55 -5q-5 -1 -10 -1zM286 519h-4q-7 2 -11.5 8.5t-2.5 13.5q12 67 50 124
q4 6 11.5 7.5t14 -2.5t8 -11.5t-2.5 -14.5q-34 -50 -45 -110q-3 -15 -18 -15z" />
    <glyph glyph-name="uniE611" unicode="&#xe611;" 
d="M513.5 -78q-94.5 0 -180.5 36q-84 36 -148.5 100t-99.5 148q-36 86 -36 180.5t36 181.5q35 83 99.5 147.5t148.5 99.5q86 36 180.5 36t180.5 -36q84 -35 148.5 -99.5t99.5 -147.5q36 -87 36 -181.5t-36 -180.5q-35 -84 -99.5 -148t-148.5 -100q-86 -36 -180.5 -36z
M513.5 814q-86.5 0 -166.5 -34q-77 -32 -136 -91t-91 -136q-34 -79 -34 -166t34 -167q32 -76 91 -135.5t136 -91.5q80 -34 166.5 -34t166.5 34q77 32 136 91.5t91 135.5q34 80 34 167t-34 166q-32 77 -91 136t-136 91q-80 34 -166.5 34zM508 173q-8 0 -13.5 5.5t-5.5 13.5
v114q0 26 7.5 46t24.5 34.5t29.5 22t35.5 18.5q21 10 31 16t25 18t21 24.5t10 33.5t1 48q-5 49 -48 75q-44 27 -118 26q-52 -2 -94 -30t-61 -73q-3 -7 -10 -10t-14 0t-10 10t0 14q23 56 74 90q51 35 114 36q85 2 139 -31q58 -36 65 -103q4 -34 -1.5 -61.5t-14.5 -44t-28 -32
t-30.5 -22.5t-34.5 -18q-41 -20 -55 -33q-20 -21 -20 -54v-114q0 -8 -5.5 -13.5t-13.5 -5.5zM531 86q0 -8 -5.5 -14t-13.5 -6t-14 6t-6 14t6 13.5t14 5.5t13.5 -5.5t5.5 -13.5z" />
    <glyph glyph-name="uniE612" unicode="&#xe612;" 
d="M386 164q-8 0 -13 5l-180 185q-5 6 -5 13.5t5.5 13t13.5 5.5t13 -6l167 -171l361 356q6 5 14 5t13 -5.5t5 -13.5t-5 -13l-375 -369q-6 -5 -14 -5zM508.5 -77q-94.5 0 -181.5 36q-83 36 -147.5 100t-99.5 148q-37 86 -37 180.5t37 181.5q35 83 99.5 147.5t147.5 99.5
q87 37 181.5 37t180.5 -37q83 -35 147.5 -99.5t99.5 -147.5q37 -87 37 -181.5t-37 -180.5q-35 -84 -99.5 -148t-147.5 -100q-86 -36 -180.5 -36zM508 815q-87 0 -166 -34q-77 -32 -136 -91t-92 -136q-33 -79 -33 -166t33 -167q33 -76 92 -135.5t136 -91.5q79 -34 166 -34
t166 34q77 32 136 91.5t92 135.5q33 80 33 167t-33 166q-33 77 -92 136t-136 91q-79 34 -166 34z" />
    <glyph glyph-name="uniE613" unicode="&#xe613;" 
d="M314 172q-8 0 -13.5 5.5t-5.5 13.5t6 13l424 426q5 5 13 5t13.5 -5t5.5 -13t-6 -14l-424 -425q-5 -6 -13 -6zM738.5 172q-7.5 0 -13.5 5l-425 427q-5 5 -5 13t5.5 13.5t13.5 5.5t13 -6l425 -426q5 -6 5 -13.5t-5.5 -13t-13 -5.5zM522.5 -62q-94.5 0 -180.5 37
q-84 35 -148 99.5t-100 147.5q-36 86 -36 181t36 181q36 83 100 147.5t148 99.5q86 37 180.5 37t181.5 -37q83 -35 147.5 -99.5t99.5 -147.5q37 -86 37 -181t-37 -181q-35 -83 -99.5 -147.5t-147.5 -99.5q-87 -37 -181.5 -37zM523 830q-87 0 -167 -33q-76 -33 -135.5 -92
t-91.5 -136q-34 -79 -34 -166t34 -166q32 -77 91.5 -136t135.5 -92q80 -33 167 -33t166 33q77 33 136 92t92 136q33 79 33 166t-33 166q-33 77 -92 136t-136 92q-79 33 -166 33z" />
    <glyph glyph-name="uniE614" unicode="&#xe614;" 
d="M510.5 591q-7.5 0 -13 -5t-5.5 -13v-470q0 -8 5.5 -13t13 -5t12.5 5t5 13v470q0 8 -5 13t-12.5 5zM510.5 687q-7.5 0 -13 -5t-5.5 -13v-12q0 -8 5.5 -13t13 -5t12.5 5.5t5 12.5v12q0 8 -5 13t-12.5 5zM967 579q-37 89 -105.5 157.5t-158.5 106.5q-92 39 -193 39t-193 -39
q-89 -37 -157.5 -106t-106.5 -158q-39 -92 -39 -193t39 -193q38 -89 106.5 -157.5t157.5 -106.5q92 -39 193 -39t193 39q89 38 158 106.5t106 157.5q39 92 39 193t-39 193zM934 207q-35 -83 -98.5 -146.5t-146.5 -98.5q-85 -36 -178.5 -36t-179.5 36q-82 35 -146 98.5
t-99 146.5q-36 85 -36 179t36 179q35 83 99 146.5t146 98.5q86 36 179.5 36t178.5 -36q83 -35 147 -98.5t98 -146.5q36 -85 36.5 -179t-36.5 -179z" />
    <glyph glyph-name="uniE615" unicode="&#xe615;" 
d="M851 735l13 -11l-106 -129l-14 11zM356 735l106 -129l-13 -11l-107 129zM594 827h18v-195h-18v195zM930 66h-679l-137 513h-113v18h127l136 -513h666v-18zM978 491l-87 -328h-576l-87 328h747h3zM1001 508h-797l97 -362h603zM332 -59q-21 0 -35.5 15t-14.5 35.5
t14.5 35.5t35.5 15t35.5 -15t14.5 -35.5t-14.5 -35.5t-35.5 -15zM331.5 24q-13.5 0 -23 -9.5t-9.5 -23t9.5 -23t23 -9.5t23 9.5t9.5 23t-9.5 23t-23 9.5zM856.5 -59q-20.5 0 -35.5 15t-15 35.5t15 35.5t35.5 15t35.5 -15t15 -35.5t-15 -35.5t-35.5 -15zM856.5 24
q-13.5 0 -23 -9.5t-9.5 -23t9.5 -23t23 -9.5t23 9.5t9.5 23t-9.5 23t-23 9.5z" />
    <glyph glyph-name="uniE616" unicode="&#xe616;" 
d="M942 157.5q-9 -9.5 -21.5 -10t-21.5 7.5l-370 370q-11 12 -17 12t-18 -12l-370 -370q-8 -8 -21 -7.5t-22 10t-9.5 22t8.5 21.5l411 411q7 7 18 8h5q12 -1 19 -8l411 -411q8 -9 7.5 -21.5t-9.5 -22z" />
    <glyph glyph-name="uniE617" unicode="&#xe617;" 
d="M942 577.5q-9 9.5 -21.5 10t-21.5 -7.5l-370 -370q-11 -12 -17 -12t-18 12l-370 370q-8 8 -21 7.5t-22 -10t-9.5 -22t8.5 -21.5l411 -411q7 -7 18 -8h5q12 1 19 8l411 411q8 9 7.5 21.5t-9.5 22z" />
    <glyph glyph-name="uniE618" unicode="&#xe618;" 
d="M512 576l-320 -319h128l192 192l192 -192h127z" />
    <glyph glyph-name="uniE619" unicode="&#xe619;" 
d="M512 257l-320 319h128l192 -192l192 192h127z" />
    <glyph glyph-name="uniE61A" unicode="&#xe61a;" 
d="M808 143l-50 -50l167 -166l50 50zM453 842q-110 0 -203 -54.5t-147.5 -147.5t-54.5 -203t54.5 -203.5t147.5 -147.5t203 -54t203.5 54t147.5 147.5t54 203.5t-54 203t-147.5 147.5t-203.5 54.5zM787 436.5q0 -90.5 -44.5 -167.5t-121.5 -121.5t-167.5 -44.5t-167.5 44.5
t-122 121.5t-45 167.5t45 167.5t122 122t167.5 45t167.5 -45t121.5 -122t44.5 -167.5z" />
    <glyph glyph-name="uniE61B" unicode="&#xe61b;" 
d="M800 494h-19v1q0 110 -79 188.5t-191 78.5t-191 -78.5t-79 -188.5v-1h-17q-18 0 -31 -12t-13 -29v-229q0 -17 13 -29.5t31 -12.5h72q19 0 32 12.5t13 29.5v229q0 17 -13 29t-32 12h-28v1q0 99 71.5 169.5t172 70.5t171.5 -70.5t71 -169.5v-1h-26q-19 0 -32 -12t-13 -29
v-229q0 -17 13 -29.5t32 -12.5h24v-12q0 -8 -5.5 -28t-16 -36t-35 -29.5t-59.5 -15.5q-11 20 -35 20h-43q-17 0 -28.5 -11t-11.5 -26.5t11.5 -26.5t28.5 -11h43q28 0 37 25q6 0 15.5 1t34 10t43 23.5t34.5 45t16 71.5h19q18 0 31 12.5t13 29.5v229q0 17 -13 29t-31 12z" />
    <glyph glyph-name="uniE61C" unicode="&#xe61c;" 
d="M289 512q-23 0 -39.5 -17t-16.5 -41t16.5 -40.5t39.5 -16.5t39.5 16.5t16.5 40.5t-16.5 41t-39.5 17v0zM512 512q-23 0 -39.5 -17t-16.5 -41t16.5 -40.5t39.5 -16.5t39.5 16.5t16.5 40.5t-16.5 41t-39.5 17v0zM735 512q-23 0 -39.5 -17t-16.5 -41t16.5 -40.5t39.5 -16.5
t39.5 16.5t16.5 40.5t-16.5 41t-39.5 17v0zM847 801h-670q-46 0 -78.5 -33.5t-32.5 -81.5v-434q0 -49 33.5 -86t80.5 -37h170q13 -14 51 -53.5t69 -71.5l32 -33q10 -10 20 0q90 102 148 158h174q47 0 80.5 37t33.5 86v434q0 48 -32.5 81.5t-78.5 33.5v0zM902 252
q0 -25 -17.5 -45t-40.5 -20h-171q-9 0 -19 -5.5t-15 -10.5l-5 -6l-120 -124l-121 124q-22 22 -42 22h-171q-23 0 -40.5 20t-17.5 45v434q0 24 16 41t39 17h670q23 0 39 -17t16 -41v-434zM902 252z" />
    <glyph glyph-name="uniE61D" unicode="&#xe61d;" 
d="M675 30q49 0 87 17q93 41 103 86q6 26 -19 55q-13 17 -30 35t-50 41.5t-57 23.5q-15 0 -26 -4.5t-16.5 -8.5t-14.5 -14q-21 -20 -36 -26q-25 -10 -47 -10h-2q-48 0 -98 33t-83 83t-33 98q-1 23 10 49q6 15 26 36q10 9 14 14.5t8.5 16.5t4.5 25q0 24 -23.5 57.5
t-41.5 50.5t-35 30q-29 25 -55 19q-44 -11 -86 -103q-18 -40 -17 -91q2 -101 44 -195t111 -163t163 -111t195 -44h4zM709 253q19 -1 52 -28.5t58 -58.5q13 -16 11 -25q-1 -4 -4.5 -10t-24 -21.5t-54.5 -30.5q-31 -14 -72 -14h-4q-92 2 -179.5 42t-152 104.5t-104.5 152
t-42 179.5q0 44 14 76q15 34 30.5 54.5t21.5 24t10 4.5q9 2 25 -11q31 -25 58.5 -58t28.5 -53q-1 -11 -4 -16t-13 -15q-25 -26 -34 -47q-13 -33 -13 -64q1 -57 38.5 -115t95.5 -95.5t115 -38.5h3q29 0 61 13q21 9 47 34q10 10 15.5 13t16.5 4z" />
    <glyph glyph-name="uniE61E" unicode="&#xe61e;" 
d="M353 64q-26 0 -45 -18.5t-19 -45t19 -45.5t45.5 -19t45 19t18.5 45.5t-18.5 45t-45.5 18.5zM801 64q-26 0 -45 -18.5t-19 -45t19 -45.5t45.5 -19t45 19t18.5 45.5t-18.5 45t-45.5 18.5zM937 708q-25 28 -63 28h-641l-2 13q-5 35 -32 59t-62 24h-40q-13 0 -22.5 -9.5
t-9.5 -22.5t9.5 -22.5t22.5 -9.5h40q11 0 20 -8.5t10 -19.5l31 -179l54 -382q5 -35 31.5 -59t61.5 -24h520q13 0 22.5 9.5t9.5 22.5t-9.5 22.5t-22.5 9.5h-520q-10 0 -19 8t-10 19l-5 38l507 31q35 0 61.5 24t30.5 58l51 288q6 48 -24 82z" />
    <glyph glyph-name="uniE61F" unicode="&#xe61f;" 
d="M337 -4.5q0 -21.5 15 -37t36.5 -15.5t36.5 15.5t15 37t-15 36.5t-36.5 15t-36.5 -15t-15 -36.5zM770 -4.5q0 -21.5 15 -37t36.5 -15.5t37 15.5t15.5 37t-15.5 36.5t-37 15t-36.5 -15t-15 -36.5zM863 134l-496 -2l-16 2q-27 12 -36 70l-63 479v2q-5 62 -43 96
q-20 18 -42 22q-3 1 -6 1h-63q-13 0 -22 -8.5t-9 -21.5t9 -22t21 -9h59q24 -9 32 -43v-3l67 -501q4 -30 14 -53.5t20 -35.5t22 -20t18 -10t10 -3q1 -1 3 -1l20 -2h3l498 2q13 0 22 9t9 21.5t-9 21.5t-22 9zM952 604q13 53 -11 87q-24 33 -65 36h-3l-521 -2q-13 0 -22 -9
t-9 -21.5t9 -21.5t22 -9l520 2q13 -2 18 -11q6 -7 5 -22q-1 -1 -1 -3l-2 -15q0 -2 -1 -3q-1 -5 -1 -11l-37 -250q-1 -2 -1 -4q-2 -21 -9 -34.5t-11.5 -16t-8.5 -3.5l-405 -36q-12 -1 -20.5 -11t-6.5 -22q1 -12 9.5 -20t20.5 -8h3l405 36q22 2 42 18q21 17 32 46q5 7 6 14z
" />
    <glyph glyph-name="uniE620" unicode="&#xe620;" horiz-adv-x="1025" 
d="M720 266l-166 96v262q0 17 -11.5 28.5t-28 11.5t-28.5 -11.5t-12 -28.5v-280q0 -17 30 -34q3 -4 18 -13l166 -100q14 -8 28 -4t22 19q8 14 2.5 30t-20.5 24zM852 724q-68 67 -155.5 103.5t-184 36.5t-184 -36.5t-155.5 -104.5t-104.5 -155.5t-36.5 -183.5t36.5 -183.5
t104.5 -155.5t155.5 -104.5t184 -36.5t184 36.5t155.5 104.5q92 92 125 215.5t0 247t-125 216.5zM808 89q-59 -59 -135.5 -91t-160 -32t-160 32t-135.5 91t-90.5 135t-31.5 160t31.5 160t90.5 135t135.5 90.5t160 31.5t160 -31.5t135.5 -90.5q80 -80 108.5 -187.5t0 -215
t-108.5 -187.5z" />
    <glyph glyph-name="uniE621" unicode="&#xe621;" 
d="M511 832q-91 0 -174 -35.5t-142.5 -95.5t-95 -143t-35.5 -174t35.5 -173.5t95 -142.5t142.5 -95.5t174 -35.5t174 35.5t143 95.5t95.5 142.5t35.5 173.5t-35.5 174t-95.5 143t-143 95.5t-174 35.5zM509 105q-23 1 -40 18t-18 40q0 26 18 44.5t44 17.5q24 -1 40.5 -17.5
t17.5 -40.5q1 -26 -17.5 -44t-44.5 -18zM572 331q0 -23 -15 -39.5t-36 -16.5h-18q-21 0 -35.5 16.5t-14.5 39.5l-22 277q0 23 15 39t36 16h59q21 0 35.5 -16t14.5 -39z" />
    <glyph glyph-name="uniE622" unicode="&#xe622;" 
d="M889 750h-26q-64 0 -121.5 10t-92.5 23.5t-64 29.5t-38 23.5t-12 10.5l-23 23l-23 -23q-2 -3 -11.5 -10.5t-38 -23.5t-63.5 -29.5t-93 -23.5t-122 -10h-26l-32 1v-439q0 -40 6.5 -75t31 -81.5t65.5 -87t116.5 -85.5t178.5 -81l11 -4l11 4q103 36 178.5 81t116.5 85.5
t65.5 87t31 81.5t6.5 75v439zM477 199l-206 180l55 44l109 -80l17 17q11 11 45 41.5t67.5 57.5t80 58.5t87.5 51.5l21 -23q-8 -6 -20.5 -17t-49 -47.5t-69.5 -75t-72 -95.5t-65 -112z" />
    <glyph glyph-name="uniE623" unicode="&#xe623;" horiz-adv-x="1026" 
d="M686 545l-3 51h6q60 0 102 -61t42 -147.5t-42 -148t-102 -61.5v52q35 0 64 45.5t29 112t-29 112t-64 45.5h-3zM793 663l-3 51h9q62 0 114 -44t82 -120t30 -165.5t-30 -165.5t-82 -120t-114 -44v51q71 0 123 82.5t52 196t-52 196t-123 82.5h-6zM521 8v756
q-32 -18 -99.5 -76.5t-132.5 -122.5l-15 -14h-21h-201v-334h195h26l13 -11zM526 -52q-12 0 -27 11l-252 207h-213q-3 1 -8.5 2.5t-15 11.5t-10.5 25v363l2 8q2 4 10.5 13t21.5 13h219q9 9 24 23.5t56 52t75.5 66.5t69 52.5t48.5 23.5h1h5q8 0 15.5 -2.5t16 -13t8.5 -29.5
v-788q0 -23 -25 -34q-8 -4 -20 -5h-1v0z" />
    <glyph glyph-name="uniE624" unicode="&#xe624;" 
d="M512 -212q-16 17 -41.5 47.5t-92 115.5t-117 161.5t-92 166.5t-41.5 149q0 159 112.5 271.5t271.5 112.5t271.5 -112.5t112.5 -271.5q0 -59 -41.5 -149t-92 -166.5t-116.5 -161.5t-92.5 -115.5t-41.5 -47.5zM512 684q-106 0 -181 -75t-75 -181t75 -181t181 -75t181 75
t75 181t-75 181t-181 75z" />
    <glyph glyph-name="uniE625" unicode="&#xe625;" 
d="M512 748q-91 0 -174 -35.5t-143 -95.5t-95.5 -143t-35.5 -174t35.5 -174t95.5 -143t143 -95t174 -35t174 35t143 95t95 143t35 174t-35 174t-95 143t-143 95.5t-174 35.5zM512 -20q-87 0 -161 43t-116.5 116.5t-42.5 160.5t42.5 160.5t116.5 116.5t161 43t160.5 -43
t116.5 -116.5t43 -160.5t-43 -160.5t-116.5 -116.5t-160.5 -43zM512 300zM320 300.5q0 79.5 56 135.5t135.5 56t136 -56t56.5 -135.5t-56.5 -136t-136 -56.5t-135.5 56.5t-56 136z" />
  </font>
</defs>
</svg>
